ML
     
  Уважаемый Гость!
Вы можете поддержать проект и зарегистрироваться у наших партнеров - онлайн-стратегия MyLands. При регистрации в игре Вы получите код, который сможете активировать после регистрации на pirat.ca и получить 1000 дублонов.

Ваш код:
193c38d0130f05c24de871678ea3ac181461757d
 
     

Морская бригада (Аун Хое Го / Aun Hoe Gou) [2011 г., мультфильм, DVDRip-AVC] (Dub) [internal release]

Ответить на тему
 
Автор
Сообщение

Пост 11-Ноя-2011 17:19

[Q] 

Green

Шкипер

---Морская бригада / SeaFood--- Год выпуска: 2011
Мировая премьера: 7 октября 2011
Российская премьера: 20 октября 2011, «Каропрокат»
Дата выхода DVD: 20 ноября 2011, «Мистерия Звука»
Производство: Малайзия / Duka Film
Жанр: мультфильм
Продолжительность: 01:28:23
Перевод: Профессиональный (дублированный) [лицензия]
Режиссер: Аун Хое Го / Aun Hoe Gou
Описание: Две бамбуковые акулы — Пап и Джулиус — покидают свой родной риф и отправляются в рискованное и увлекательное приключение к берегам континента с целью спасти своих собратьев от распоясавшихся браконьеров.
Сэмпл, IMDB, КиноПоиск
Источник/Качество: DVDRip-AVC
Формат: MKV
Видео кодек: H.26x
Аудио кодек: AC3
Видео: [email protected], 25.000 fps, 1 920 Kbps
Аудио: 48.0 KHz, 6 channels, 448 Kbps
General
Complete name : D:Morskaja.brigada.2011.D.DVDRip-AVC.Green..mkv
Format : Matroska
File size : 1.46 GiB
Duration : 1h 28mn
Overall bit rate : 2 370 Kbps
Encoded date : UTC 2011-11-11 02:29:26
Writing application : mkvmerge v4.5.0 ('Speed of Light') сборка от Feb 1 2011 02:10:32
Writing library : libebml v1.2.0 + libmatroska v1.1.0
Video
ID : 1
Format : AVC
Format/Info : Advanced Video Codec
Format profile : [email protected]
Format settings, CABAC : Yes
Format settings, ReFrames : 8 frames
Codec ID : V_MPEG4/ISO/AVC
Duration : 1h 28mn
Bit rate : 1 920 Kbps
Width : 720 pixels
Height : 576 pixels
Display aspect ratio : 16:9
Frame rate : 25.000 fps
Standard : PAL
Color space : YUV
Chroma subsampling : 4:2:0
Bit depth : 8 bits
Scan type : Progressive
Bits/(Pixel*Frame) : 0.185
Stream size : 1.16 GiB (79%)
Writing library : x264 core 113 r1884 7313bb5
Audio
ID : 2
Format : AC-3
Format/Info : Audio Coding 3
Mode extension : CM (complete main)
Codec ID : A_AC3
Duration : 1h 28mn
Bit rate mode : Constant
Bit rate : 448 Kbps
Channel(s) : 6 channels
Channel positions : Front: L C R, Side: L R, LFE
Sampling rate : 48.0 KHz
Bit depth : 16 bits
Stream size : 283 MiB (19%)



Download / Скачать

Хотите скачать бесплатно? Зарегистрируйтесь на сайте (ссылка на регистрацию). Pirat.ca - самый быстрый торрент трекер в рунете!

Как скачивать  ·   Что такое торрент  ·   Рейтинг и ограничения



Последний раз редактировалось: Green (2011-11-15 16:44), всего редактировалось 1 раз

Пост 11-Ноя-2011 17:39 (спустя 20 минут)

Топик был перенесен из форума Мультипликация в форум Новинки (HD|DVD|BD|TV|SAT|PDTV| - Rips)

zyyx
 

Luzhok

Легенда

Пост 11-Ноя-2011 19:01 (спустя 1 час 42 минуты)

[Q] 

Green,
спасибо
[Профиль]  [ЛС] 

dimonpa

Гроза морей

Пост 13-Ноя-2011 11:05 (спустя 1 день 16 часов)

[Q] 

Спасибо !!! Раздающему респект !!!
[Профиль]  [ЛС] 

pum-ba

Штурман

Пост 13-Ноя-2011 12:39 (спустя 1 час 34 минуты)

[Q] 

Cпасибо,покажу детям!
[Профиль]  [ЛС] 

xxxLOGICxxx

Корсар

Пост 14-Ноя-2011 07:33 (спустя 18 часов)

[Q] 

Огромное спасибо! Пиратка рулит!
[Профиль]  [ЛС] 

SANCHOUSS

Лоцман

Пост 14-Ноя-2011 12:25 (спустя 4 часа)

[Q] 

спасибо
[Профиль]  [ЛС] 

polozm

Легенда

Пост 15-Ноя-2011 09:31 (спустя 21 час)

[Q] 

спасибо за мульт

_________________
mac mini -2.0 GHz Intel Core i7/ 8 GB DDR3. /Intel HD 3000(512mb)OS X 10.9 Mavericks
[Профиль]  [ЛС] 

sppi9

Морской Волк

Пост 15-Ноя-2011 16:53 (спустя 7 часов)

[Q] 

спсасибки
[Профиль]  [ЛС] 

kulic

Лоцман

Пост 16-Ноя-2011 13:00 (спустя 20 часов)

[Q] 

респект
[Профиль]  [ЛС] 

aleks77l

Морской Волк

Пост 16-Ноя-2011 16:55 (спустя 3 часа)

[Q] 

СПОСИБО!
[Профиль]  [ЛС] 

ппавел

Шкипер

Пост 21-Ноя-2011 18:03 (спустя 5 дней)

[Q] 

спасибо!!!
[Профиль]  [ЛС] 

aleks963

Морской Волк

Пост 22-Ноя-2011 15:54 (спустя 21 час)

[Q] 

СПОСИБО! Люблю мультики. bm
[Профиль]  [ЛС] 

Mormynt

Морской Волк

Пост 22-Ноя-2011 16:32 (спустя 38 минут)

[Q] 

Спасибо

_________________
Все, что в жизни я трачу на себя - пропадает бесследно, все, что раздаю другим, остается со мной!!!
[Профиль]  [ЛС] 

Vlad__treker

Морской Волк

184

Пост 23-Ноя-2011 16:58 (спустя 1 день)

[Q] 

Green, спасибо, опять радуешь нас новинками!

_________________
...:::Pirat.ca:::...
..:::The Best:::...
[Профиль]  [ЛС] 

CHARLI2236

1092

Пост 25-Ноя-2011 18:18 (спустя 2 дня 1 час)

[Q] 

СПАСИБО

_________________
[Профиль]  [ЛС] 

OAAlex

Морской Волк

Пост 26-Ноя-2011 08:55 (спустя 14 часов)

[Q] 

Спасибо, посмотрим
[Профиль]  [ЛС] 

Hausser

Гроза морей

Пост 04-Дек-2011 23:19 (спустя 8 дней)

[Q] 

Благодарю, ребенок доволен.
[Профиль]  [ЛС] 

TOR-rb

Шкипер

Пост 26-Янв-2012 15:59 (спустя 1 месяц 21 день)

[Q] 

СПАСИБО
[Профиль]  [ЛС] 

Aleks44

Гроза морей

Пост 27-Янв-2012 02:32 (спустя 10 часов)

[Q] 

Так не очень
[Профиль]  [ЛС] 

Прораб

Легенда

Пост 03-Апр-2012 21:58 (спустя 2 месяца 7 дней)

[Q] 


_________________
Config comp: CPU-i7-2600K/RAM-32Gb/GF580GTX-1536Mb/RAID0(2 SSD-480GB)+RAID5(8 HDD-20Tb)/Win7 64bit.
[Профиль]  [ЛС] 
Показать сообщения:    
Ответить на тему

Текущее время: Сегодня 18:08

Часовой пояс: GMT + 4



Вы не можете начинать темы
Вы не можете отвечать на сообщения
Вы не можете редактировать свои сообщения
Вы не можете удалять свои сообщения
Вы не можете голосовать в опросах
Вы не можете прикреплять файлы к сообщениям
Вы не можете скачивать файлы

▼ Вниз