ML
     
  Уважаемый Гость!
Вы можете поддержать проект и зарегистрироваться у наших партнеров - онлайн-стратегия MyLands. При регистрации в игре Вы получите код, который сможете активировать после регистрации на pirat.ca и получить 1000 дублонов.

Ваш код:
fcd618d94adc1456bccbde5047c9cd0930e4ae4d
 
     

Братц: Мечты сбываются \ Bratz: Dreams Come True (Фил Вайнштейн / Phil Weinstein) [2011 г., комедия, приключения, семейный, DVDRip] (MVO)

Ответить на тему
 
Автор
Сообщение

Пост 12-Ноя-2011 13:33

[Q] 

Sirota

Легенда

Братц: Мечты сбываются \ Bratz: Dreams Come True Год выпуска: 2011
Производство: США "Lions Gate"
Жанр: комедия, приключения, семейный
Продолжительность: 01:03:20
Перевод: профессиональный (многоголосый, закадровый) лицензия
Оригинальный аудиопоток: Английский
Режиссер: Фил Вайнштейн / Phil Weinstein
В ролях: В новом фильме девочкам предстоит узнать, как правильно устраиваться на работу, как создать новый сногсшибательный имидж, как покорить сердце суперзвезды - гонщика! И многое-многое другое!! Девочки займутся спортом, узнают, какого это – сидеть с детьми, попробуют устроить идеальное свидание, спасут мир и даже станут невидимыми...
Сэмпл,
Источник/Качество: DVDRip
Формат: AVI
Видео кодек: XviD
Аудио кодек: AC3
Видео: 704x528 (1.33:1), 25 fps, XviD build 58 ~2543 kbps avg, 0.27 bit/pixel
Аудио: Rus 48 kHz, AC3 Dolby Digital, 3/2 (L,C,R,l,r) + LFE ch, ~256.00 kbps avg
Аудио #2: Eng 48 kHz, AC3 Dolby Digital, 3/2 (L,C,R,l,r) + LFE ch, ~256.00 kbps avg
Субтитры: нет
General
Format : AVI
Format/Info : Audio Video Interleave
File size : 1.36 GiB
Duration : 1h 3mn
Overall bit rate : 3 071 Kbps
Writing application : VirtualDubMod 1.5.10.3 (build 2550/release)
Writing library : VirtualDubMod build 2550/release
Video #0
ID : 0
Format : MPEG-4 Visual
Format profile : [email protected]
Format settings, BVOP : Yes
Format settings, QPel : No
Format settings, GMC : No warppoints
Format settings, Matrix : Default (MPEG)
Codec ID : XVID
Codec ID/Hint : XviD
Duration : 1h 3mn
Bit rate : 2 544 Kbps
Width : 704 pixels
Height : 528 pixels
Display aspect ratio : 4:3
Frame rate : 25.000 fps
Resolution : 24 bits
Colorimetry : 4:2:0
Scan type : Progressive
Bits/(Pixel*Frame) : 0.274
Stream size : 1.13 GiB (83%)
Writing library : XviD 58
Audio #1
ID : 1
Format : AC-3
Format/Info : Audio Coding 3
Codec ID : 2000
Duration : 1h 3mn
Bit rate mode : Constant
Bit rate : 256 Kbps
Channel(s) : 6 channels
Channel positions : Front: L C R, Surround: L R, LFE
Sampling rate : 48.0 KHz
Stream size : 116 MiB (8%)
Alignment : Split accross interleaves
Interleave, duration : 40 ms (1.00 video frame)
Interleave, preload duration : 500 ms
Audio #2
ID : 2
Format : AC-3
Format/Info : Audio Coding 3
Codec ID : 2000
Duration : 1h 3mn
Bit rate mode : Constant
Bit rate : 256 Kbps
Channel(s) : 6 channels
Channel positions : Front: L C R, Surround: L R, LFE
Sampling rate : 48.0 KHz
Stream size : 116 MiB (8%)
Alignment : Split accross interleaves
Interleave, duration : 40 ms (1.00 video frame)
Interleave, preload duration : 500 ms






Download / Скачать

Хотите скачать бесплатно? Зарегистрируйтесь на сайте (ссылка на регистрацию). Pirat.ca - самый быстрый торрент трекер в рунете!

Как скачивать  ·   Что такое торрент  ·   Рейтинг и ограничения



Последний раз редактировалось: Sirota (2011-11-12 14:59), всего редактировалось 2 раз(а)

Пост 12-Ноя-2011 13:54 (спустя 21 минута)

Топик был перенесен из форума Мультипликация в форум Зарубежные полнометражные мультфильмы

CaptRom
 

Пост 13-Ноя-2011 05:31 (спустя 15 часов)

Топик был перенесен из форума Зарубежные полнометражные мультфильмы в форум Новинки (HD|DVD|BD|TV|SAT|PDTV| - Rips)

CaptRom
 

xxxLOGICxxx

Корсар

Пост 14-Ноя-2011 07:32 (спустя 1 день 17 часов)

[Q] 

Спасибо! Пиратка рулит!
[Профиль]  [ЛС] 

Пост 06-Янв-2012 20:30 (спустя 1 месяц 22 дня)

Топик был перенесен из форума Современное кино (с 2000 г.) в форум Зарубежные полнометражные мультфильмы

goxakrauter
 

CHARLI2236

1097

Пост 30-Окт-2012 12:54 (спустя 11 месяцев 16 дней)

[Q] 

благодарю

_________________
[Профиль]  [ЛС] 
Показать сообщения:    
Ответить на тему

Текущее время: Сегодня 12:53

Часовой пояс: GMT + 4



Вы не можете начинать темы
Вы не можете отвечать на сообщения
Вы не можете редактировать свои сообщения
Вы не можете удалять свои сообщения
Вы не можете голосовать в опросах
Вы не можете прикреплять файлы к сообщениям
Вы не можете скачивать файлы

▼ Вниз