ML
     
  Уважаемый Гость!
Вы можете поддержать проект и зарегистрироваться у наших партнеров - онлайн-стратегия MyLands. При регистрации в игре Вы получите код, который сможете активировать после регистрации на pirat.ca и получить 1000 дублонов.

Ваш код:
11f49771fdf057c9d51610e4a0925c3b46ddb655
 
     

Мёртвый Космос: Последствия / Dead Space: Aftermath (Майкл Д’Иса-Хоган / Michael D'Isa-Hogan) (мультфильм, ужасы, фантастика 2011г HDRip)

Ответить на тему
 
Автор
Сообщение

Пост 12-Ноя-2011 15:10

[Q] 

racom

Мёртвый Космос: Последствия / Dead Space: Aftermath (2011/ HDRip)-

Год выпуска: 2011
Страна: США, Южная корея
Жанр: мультфильм, ужасы, фантастика
Продолжительность: 01:17:39
Перевод: Любительский (одноголосый, закадровый)
Режиссер: Майкл Д’Иса-Хоган / Michael D'Isa-Hogan
Описание: Второй полнометражный фильм по вселенной Dead Space. Сюжет расскажет о трагических событиях на Aegis VII. В 2509 году Земля потеряла связь с космическим кораблем "Ишимура" и Исааком Кларком. А также и с космическим кораблем "О'Бэннон", который был первым отправлен на спасение "Ишимуры". Четверо членов экипажа "О'Бэннона" выжили, но никто не знает, что приключилось с остальными...
Качество: HDRip
Формат: AVI
Видео кодек: XviD build 50
Аудио кодек: MPEG Layer 3
Видео: 720x304 (2.37:1), 23.976 fps, XviD build 50 ~2277 kbps avg, 0.43 bit/pixel
Аудио 1: 44.100 kHz, MPEG Layer 3, 2 ch, ~128.00 kbps avg (русский)
Аудио 2: 44.100 kHz, MPEG Layer 3, 2 ch, ~112.00 kbps avg (оригинал)
Video
ID : 0
Format : MPEG-4 Visual
Format profile : Advanced [email protected]
Format settings, BVOP : 2
Format settings, QPel : No
Format settings, GMC : No warppoints
Format settings, Matrix : Default (MPEG)
Codec ID : XVID
Codec ID/Hint : XviD
Duration : 1h 17mn
Bit rate : 2 278 Kbps
Width : 720 pixels
Height : 304 pixels
Display aspect ratio : 2.35:1
Frame rate : 23.976 fps
Color space : YUV
Chroma subsampling : 4:2:0
Bit depth : 8 bits
Scan type : Progressive
Compression mode : Lossy
Bits/(Pixel*Frame) : 0.434
Stream size : 1.24 GiB (90%)
Writing library : XviD 1.2.1 (UTC 2008-12-04)
Audio #1
ID : 1
Format : MPEG Audio
Format version : Version 1
Format profile : Layer 3
Codec ID : 55
Codec ID/Hint : MP3
Duration : 1h 17mn
Bit rate mode : Constant
Bit rate : 128 Kbps
Channel(s) : 2 channels
Sampling rate : 44.1 KHz
Compression mode : Lossy
Stream size : 71.1 MiB (5%)
Alignment : Split accross interleaves
Interleave, duration : 42 ms (1.00 video frame)
Interleave, preload duration : 500 ms
Audio #2
ID : 2
Format : MPEG Audio
Format version : Version 1
Format profile : Layer 3
Codec ID : 55
Codec ID/Hint : MP3
Duration : 1h 17mn
Bit rate mode : Constant
Bit rate : 112 Kbps
Channel(s) : 2 channels
Sampling rate : 44.1 KHz
Compression mode : Lossy
Stream size : 62.2 MiB (4%)
Alignment : Split accross interleaves
Interleave, duration : 42 ms (1.00 video frame)
Interleave, preload duration : 500 ms
Writing library : LAME3.98r
Encoding settings : -m s -V 4 -q 2 -lowpass 15.6 -b 112


Download / Скачать

Хотите скачать бесплатно? Зарегистрируйтесь на сайте (ссылка на регистрацию). Pirat.ca - самый быстрый торрент трекер в рунете!

Как скачивать  ·   Что такое торрент  ·   Рейтинг и ограничения

Пост 12-Ноя-2011 16:45 (спустя 1 час 34 минуты)

Топик был перенесен из форума Мультипликация в форум Новинки (HD|DVD|BD|TV|SAT|PDTV| - Rips)

zyyx
 

racom ®

2341

Пост 12-Ноя-2011 18:34 (спустя 3 часа)

[Q] 

а почему временная?

_________________
[Профиль]  [ЛС] 

mitrich_pv

Корсар

Пост 12-Ноя-2011 19:37 (спустя 1 час 3 минуты)

[Q] 

спасибо!

_________________
И хоть иду я долиною скорби, не убоюсь я зла, ибо я и есть самая злобная тварь в этой долине...
[Профиль]  [ЛС] 

racom ®

2341

Пост 12-Ноя-2011 23:17 (спустя 3 часа)

[Q] 

пожалуйста)
залил BDRip - Мёртвый Космос: Последствия / Dead Space: Aftermath (Майкл Д’Иса-Хоган / Michael D'Isa-Hogan) (мультфильм, ужасы, фантастика 2011г BDRip 720p)

_________________
[Профиль]  [ЛС] 

dmb_2005

Шкипер

Пост 13-Ноя-2011 08:26 (спустя 9 часов)

[Q] 

а почему временная?
Потому, что перевод любительский.

_________________
[Профиль]  [ЛС] 

racom ®

2341

Пост 13-Ноя-2011 08:52 (спустя 25 минут)

[Q] 

dmb_2005, пняяяятна, бум иметь ввиду

_________________
[Профиль]  [ЛС] 

aleks963

Морской Волк

Пост 13-Ноя-2011 19:15 (спустя 10 часов)

[Q] 

Благодарю.
[Профиль]  [ЛС] 

morfik

Лоцман

Пост 15-Ноя-2011 17:30 (спустя 1 день 22 часа)

[Q] 

Ну и как мульт? Отпишите кто? Первый помню впечатлил...

_________________
Ах, у ели, ах, у ёлки, ах, у ели - злые волки!
[Профиль]  [ЛС] 

kubrik

Шкипер

Пост 15-Ноя-2011 18:59 (спустя 1 час 29 минут)

[Q] 

ребятишкам то хоть понравится?

_________________
до чего дошел прогресс...
[Профиль]  [ЛС] 

morfik

Лоцман

Пост 18-Ноя-2011 03:24 (спустя 2 дня 8 часов)

[Q] 

грёбаная шнягохрень! Трэш корейский(( хватило на 15 мин(
Первый мульт рулил как пред.история!

_________________
Ах, у ели, ах, у ёлки, ах, у ели - злые волки!
[Профиль]  [ЛС] 

Alex_93

Штурман

Пост 18-Ноя-2011 15:20 (спустя 11 часов)

[Q] 

Лучше бы фильм сняли.. страшненько бы было
[Профиль]  [ЛС] 

sergLyghin

Корсар

162

Пост 20-Янв-2012 19:35 (спустя 2 месяца 2 дня)

[Q] 

Да фильм был бы не плохо как про "ДУМ"
[Профиль]  [ЛС] 

serafim7

Корсар

99

Пост 25-Янв-2012 12:45 (спустя 4 дня)

[Q] 

а игра шикарная была-ждем новых фильмов и игр этой серии
[Профиль]  [ЛС] 

RICON

Шкипер

Пост 25-Янв-2012 14:41 (спустя 1 час 56 минут)

[Q] 

полный отстой!
[Профиль]  [ЛС] 

alextaganovich

Морской Волк

Пост 05-Фев-2012 20:18 (спустя 11 дней)

[Q] 

Спасибо!
[Профиль]  [ЛС] 

polyk

Флибустьер

Пост 18-Ноя-2013 19:57 (спустя 1 год 9 месяцев)

[Q] 

нормальный мульт!!! Всем качать!!!
[Профиль]  [ЛС] 
Показать сообщения:    
Ответить на тему

Текущее время: Сегодня 03:14

Часовой пояс: GMT + 4



Вы не можете начинать темы
Вы не можете отвечать на сообщения
Вы не можете редактировать свои сообщения
Вы не можете удалять свои сообщения
Вы не можете голосовать в опросах
Вы не можете прикреплять файлы к сообщениям
Вы не можете скачивать файлы

▼ Вниз