ML
     
  Уважаемый Гость!
Вы можете поддержать проект и зарегистрироваться у наших партнеров - онлайн-стратегия MyLands. При регистрации в игре Вы получите код, который сможете активировать после регистрации на pirat.ca и получить 1000 дублонов.

Ваш код:
5f4e94775bc0501caff7b254e79328d304c817d9
 
     

Дорога на Эльдорадо / The Road To El Dorado (Бибо Бержерон/Bibo Bergeron, Уилл Финн/Will Finn, Дон Пол/Don Paul) [2000 г., Анимация, комедия, приключения, DVDRip] (MVO)

Ответить на тему
 
Автор
Сообщение

Пост 12-Ноя-2011 18:28

[Q] 

bigalex2b

Лоцман

Дорога на Эльдорадо / The Road To El Dorado
Год выпуска: 2000
Мировая премьера: 31 марта 2000
Российская премьера: 25 декабря 2001
Производство: США
Жанр: Анимация, комедия, приключения
Продолжительность: 01:29:27
Перевод: Профессиональный (многоголосый, закадровый)
Режиссер: Бибо Бержерон/Bibo Bergeron, Уилл Финн/Will Finn, Дон Пол/Don Paul
В ролях: Кевин Клайн, Кеннет Брана, Дункан Майджорибенкс, Тобин Белл, Фрэнк Уэлкер, Джим Каммингс, Эдвард Джеймс Олмос, Арманд Ассанте, Рози Перез, Элайджа Чианг
Описание: Тульо и Мигель, герои этой полнометражной мультипликационной картины, предпочитают не зарабатывать деньги тяжелым трудом. Эти два отпетых мошенника обожают, когда золотишко само идет к ним в руки. Случилось так, что этим проходимцам крупно повезло.
Им посчастливилось найти таинственную карту, на которой обозначен величественный Город Золота, мифический Эльдорадо. Вместе со знаменитым конкистадором Эрнаном Кортесом приятели отправляются в рискованное путешествием за сокровищами к берегам далекой Америки.
Сэмпл, IMDB, КиноПоиск
Источник/Качество: DVDRip
Формат: AVI
Видео кодек: DivX
Аудио кодек: MP3
Видео: 704x384 23.976fps 2045Kbps
Аудио: MP3 48000Hz 2ch 128Kbps
General
Format : AVI
Format/Info : Audio Video Interleave
File size : 1.37 GiB
Duration : 1h 29mn
Overall bit rate : 2 189 Kbps
Writing application : VirtualDubMod 1.5.4.1 (build 2178/release)
Writing library : VirtualDubMod build 2178/release
Video #0
ID : 0
Format : MPEG-4 Visual
Format settings, BVOP : No
Format settings, QPel : No
Format settings, GMC : No warppoints
Format settings, Matrix : Default (H.263)
Codec ID : DX50
Codec ID/Hint : DivX 5
Duration : 1h 29mn
Bit rate : 2 046 Kbps
Width : 704 pixels
Height : 384 pixels
Display aspect ratio : 16:9
Frame rate : 23.976 fps
Color space : YUV
Chroma subsampling : 4:2:0
Bit depth : 8 bits
Scan type : Progressive
Compression mode : Lossy
Bits/(Pixel*Frame) : 0.316
Stream size : 1.28 GiB (93%)
Writing library : DivX 5.2.1 (WaffleDay) (UTC 2004-09-08)
Audio #1
ID : 1
Format : MPEG Audio
Format version : Version 1
Format profile : Layer 3
Mode : Joint stereo
Mode extension : MS Stereo
Codec ID : 55
Codec ID/Hint : MP3
Duration : 1h 29mn
Bit rate mode : Variable
Bit rate : 128 Kbps
Channel(s) : 2 channels
Sampling rate : 48.0 KHz
Compression mode : Lossy
Stream size : 83.5 MiB (6%)
Alignment : Aligned on interleaves
Interleave, duration : 24 ms (0.58 video frame)
Interleave, preload duration : 141 ms
Writing library : LAME3.90.
Encoding settings : -m j -V 4 -q 2 -lowpass 17.6 --abr 128
Language : Russian
Download / Скачать

Хотите скачать бесплатно? Зарегистрируйтесь на сайте (ссылка на регистрацию). Pirat.ca - самый быстрый торрент трекер в рунете!

Как скачивать  ·   Что такое торрент  ·   Рейтинг и ограничения

Пост 12-Ноя-2011 19:55 (спустя 1 час 27 минут)

Топик был перенесен из форума Мультипликация в форум Зарубежные полнометражные мультфильмы

Sirota
 

Элизиотта

Морской Волк

329

Пост 15-Май-2012 17:15 (спустя 6 месяцев 2 дня)

[Q] 

Спасибо огромное! Мультик моего детства!
[Профиль]  [ЛС] 

Вут

Морской Волк

72

Пост 12-Авг-2013 10:17 (спустя 1 год 2 месяца)

[Q] 

Спасибо! Пересмотрю с детьми с огромным удовольствием! Лови бочку
[Профиль]  [ЛС] 

darkroot

Шкипер

Пост 03-Июл-2014 07:43 (спустя 10 месяцев 21 день)

[Q] 

спасибо) Пиратка рулез!!!
Добавлено спустя 46 секунд:
раздайте ктонить пожалуйста Эй, вернитесь на раздачу...

_________________
[Профиль]  [ЛС] 

Antarres

Легенда

Пост 25-Янв-2015 12:24 (спустя 6 месяцев 22 дня)

[Q] 

Thanks !

_________________
[Профиль]  [ЛС] 
Показать сообщения:    
Ответить на тему

Текущее время: Сегодня 15:31

Часовой пояс: GMT + 4



Вы не можете начинать темы
Вы не можете отвечать на сообщения
Вы не можете редактировать свои сообщения
Вы не можете удалять свои сообщения
Вы не можете голосовать в опросах
Вы не можете прикреплять файлы к сообщениям
Вы не можете скачивать файлы

▼ Вниз