ML
     
  Уважаемый Гость!
Вы можете поддержать проект и зарегистрироваться у наших партнеров - онлайн-стратегия MyLands. При регистрации в игре Вы получите код, который сможете активировать после регистрации на pirat.ca и получить 1000 дублонов.

Ваш код:
0fcd44bd35319f69313aa6e53b31c51cbff1c942
 
     

Бэтмен и тайна женщины-летучей мыши / Batman: Mystery of the Batwoman (Курт Геда, Тим Молтби / Curt Geda, Tim Maltby) [2003 г., Мультфильм, Боевик, Детектив, Приключения, HDRip] (MVO)

Ответить на тему
 
Автор
Сообщение

Пост 13-Ноя-2011 03:01

[Q] 

Ksandr

Флибустьер

Бэтмен и тайна женщины-летучей мыши / Batman: Mystery of the Batwoman
Год выпуска: 2003
Мировая премьера: 21 октября 2003
Производство: США
Жанр: Мультфильм, Боевик, Детектив, Приключения
Продолжительность: 01:14:48
Перевод: Профессиональный (многоголосый, закадровый)
Режиссер: Курт Геда, Тим Молтби / Curt Geda, Tim Maltby
В ролях: Кевин Конрой, Кимберли Брукс, Келли Рипа, Элиза Габриелли, Кира Седжвик, Дэвид Огден Стайерз, Кевин Майкл Ричардсон, Джон Вернон, Гектор Элизондо, Ефрем Цимбалист мл.
Описание: Пингвин и Руперт Торн — криминальная когорта, которая собирается заняться контрабандой оружия. Но в Готэм Сити появился новый супер-герой, который имеет другие планы насчет этих предпринимателей — Женщина-летучая мышь! С суперсовременными приспособлениями и крепкими кулаками она стала настоящей грозой преступников…
Источник/Качество: HDRip
Формат: AVI
Видео кодек: XviD
Аудио кодек: MP3
Видео: 640x480, ~1890 kbps, 23,976 fps
Аудио: 2ch, 128 kbps, 48,0 КГц
Общее
Полное имя : Batman Mystery of the Batwoman[pirat.ca].avi
Формат : AVI
Формат/Информация : Audio Video Interleave
Размер файла : 1,06 Гбайт
Продолжительность : 1 ч. 14 м.
Общий поток : 2027 Кбит/сек
Программа кодирования : VirtualDubModRus 1.5.10.2 (build 2542/release)
Библиотека кодирования : VirtualDubMod build 2542/release
Видео
Идентификатор : 0
Формат : MPEG-4 Visual
Профиль формата : Advanced [email protected]
Параметр BVOP формата : 1
Параметр QPel формата : Нет
Параметр GMC формата : Без точки перехода
Параметр матрицы формата : Default (MPEG)
Идентификатор кодека : XVID
Идентификатор кодека/Подсказка : XviD
Продолжительность : 1 ч. 14 м.
Битрейт : 1890 Кбит/сек
Ширина : 640 пикселей
Высота : 480 пикселей
Соотношение сторон : 4:3
Частота кадров : 23,976 кадра/сек
Цветовое пространство : YUV
Субдискретизация насыщенности : 4:2:0
Битовая глубина : 8 бит
Тип развёртки : Прогрессивная
Метод сжатия : С потерями
Бит/(Пиксели*Кадры) : 0.257
Размер потока : 1011 Мбайт (93%)
Библиотека кодирования : XviD 1.2.1 (UTC 2008-12-04)
Аудио
Идентификатор : 1
Формат : MPEG Audio
Версия формата : Version 1
Профиль формата : Layer 3
Режим : Joint stereo
Расширение режима : MS Stereo
Идентификатор кодека : 55
Идентификатор кодека/Подсказка : MP3
Продолжительность : 1 ч. 14 м.
Вид битрейта : Постоянный
Битрейт : 128 Кбит/сек
Каналы : 2 канала
Частота : 48,0 КГц
Метод сжатия : С потерями
Размер потока : 68,5 Мбайт (6%)
Выравнивание : Разделение по промежуткам
Продолжительность промежутка : 42 мс. (1,00 видеокадр)
Время предзагрузки промежутка : 500 мс.


Download / Скачать

Хотите скачать бесплатно? Зарегистрируйтесь на сайте (ссылка на регистрацию). Pirat.ca - самый быстрый торрент трекер в рунете!

Как скачивать  ·   Что такое торрент  ·   Рейтинг и ограничения

Пост 13-Ноя-2011 03:41 (спустя 40 минут)

Топик был перенесен из форума Мультипликация в форум Зарубежные полнометражные мультфильмы

CaptRom
 
Показать сообщения:    
Ответить на тему

Текущее время: Сегодня 02:10

Часовой пояс: GMT + 4



Вы не можете начинать темы
Вы не можете отвечать на сообщения
Вы не можете редактировать свои сообщения
Вы не можете удалять свои сообщения
Вы не можете голосовать в опросах
Вы не можете прикреплять файлы к сообщениям
Вы не можете скачивать файлы

▼ Вниз