ML
     
  Уважаемый Гость!
Вы можете поддержать проект и зарегистрироваться у наших партнеров - онлайн-стратегия MyLands. При регистрации в игре Вы получите код, который сможете активировать после регистрации на pirat.ca и получить 1000 дублонов.

Ваш код:
ca44e9295b9b8527ba1c339c20494f70782efea6
 
     

Живой лес / El bosque animado(Анхель Де Ла Круз, Маноло Гомез / Ángel de la Cruz, Manolo Gоmez) [2001 г., фэнтези, приключения, семейный, DVDRip] (Dub)

Ответить на тему
 
Автор
Сообщение

Пост 13-Ноя-2011 07:55

[Q] 

Sirota

Легенда

Живой лес / El bosque animado Год выпуска: 2001
Мировая премьера: 3 августа 2001
Российская премьера: 30 октября 2003, «RUSCICO»
Дата выхода DVD: 19 ноября 2009, «Новый Диск»
Производство: Испания "Dygra Films S.L., Megatrix Sau"
Жанр: фэнтези, приключения, семейный
Продолжительность: 01:22:00
Перевод: профессиональный (полное дублирование) лицензия
Режиссер: Анхель Де Ла Круз, Маноло Гомез / Ángel de la Cruz, Manolo Gоmez
В ролях: Начо Альдегуэр,
Mar Bordallo,
Клаудио Родригез,
Хуан Мигель Куэста,
Héctor Cantolla,
Хавьер Франкуэло,
Мария Ромеро,
Rafael Azcárraga,
Франциско Хавьер Мартинез,
Mª Teresa Neila
Описание: Действие разворачивается в огромном лесу, где все, от деревьев до кустов, оживает, как только уходит последний охотник. Лесной мир скрывает от людей свои тайны — деревья даже назначили добрую тетушку Сосну своим дозорным, и она зорко следит, нет ли поблизости человека. А пока никого нет, веселые обитатели старого леса живут своей жизнью — мухи ловко уворачиваются от паутины, деревья хором поют любимые песни, а маленький крот Фури тем временем по уши влюбляется в свою подружку, красавицу Линду.
Он уже готов признаться ей в любви, но тут в лесу появляются люди, и это приводит к беде — всех кротов ловят в сеть и забирают в усадьбу богатой и злой сеньоры Дабондо, которая хочет сшить из них шубку. Уцелел только Фури, и теперь он готов на все, чтобы спасти своих товарищей. В этом нелегком деле ему помогают новые друзья — двоюродный братец мышонок, добрая кошка Моринья и парочка озорных и бесстрашных мух Хо-Хо и Ху-Ху. Все вместе они разрабатывают смелую спасательную операцию, вступая в неравный бой с хозяевами дома…
Доп. информация: сценарий Анхель Де Ла Круз, Wenceslao Fernández Flórez,
продюсер Маноло Гомез, Мануэль Р. Кристобаль,
композитор Артуро Б. Кресс, Серджо Пена Кастро,
художник Сандра Франц, Alberto Taracido, Javier Reigada,
монтаж Mercedes Arcones, Анхель Де Ла Круз, Дэвид Лопез
Сэмпл, IMDB, КиноПоиск
Источник/Качество: DVDRip
Формат: AVI
Видео кодек: XviD
Аудио кодек: MP3
Видео: 704x352 (2.00:1), 25 fps, XviD MPEG-4 ~2245 kbps avg, 0.36 bit/pixel
Аудио: 48 kHz, MPEG Layer 3, 2 ch, ~128.00 kbps avg
Субтитры: нет
General
Format : AVI
Format/Info : Audio Video Interleave
File size : 1.37 GiB
Duration : 1h 22mn
Overall bit rate : 2 383 Kbps
Writing application : FairUse Wizard
Writing library : The best and REALLY easy backup tool
Video #0
ID : 0
Format : MPEG-4 Visual
Format profile : [email protected]
Format settings, BVOP : Yes
Format settings, QPel : No
Format settings, GMC : No warppoints
Format settings, Matrix : Default (H.263)
Muxing mode : Packed bitstream
Codec ID : XVID
Codec ID/Hint : XviD
Duration : 1h 22mn
Bit rate : 2 246 Kbps
Width : 704 pixels
Height : 352 pixels
Display aspect ratio : 2.000
Frame rate : 25.000 fps
Resolution : 24 bits
Colorimetry : 4:2:0
Scan type : Progressive
Bits/(Pixel*Frame) : 0.362
Stream size : 1.29 GiB (94%)
Writing library : XviD 1.2.0.dev47 (UTC 2006-11-01)
Audio #1
ID : 1
Format : MPEG Audio
Format version : Version 1
Format profile : Layer 3
Codec ID : 55
Codec ID/Hint : MP3
Duration : 1h 22mn
Bit rate mode : Constant
Bit rate : 128 Kbps
Channel(s) : 2 channels
Sampling rate : 48.0 KHz
Resolution : 16 bits
Stream size : 75.2 MiB (5%)
Alignment : Aligned on interleaves
Interleave, duration : 40 ms (1.00 video frame)
Interleave, preload duration : 504 ms
Writing library : LAME3.97
Encoding settings : -m j -V 4 -q 2 -lowpass 17 -b 128







Download / Скачать

Хотите скачать бесплатно? Зарегистрируйтесь на сайте (ссылка на регистрацию). Pirat.ca - самый быстрый торрент трекер в рунете!

Как скачивать  ·   Что такое торрент  ·   Рейтинг и ограничения

Пост 13-Ноя-2011 09:38 (спустя 1 час 43 минуты)

Топик был перенесен из форума Мультипликация в форум Зарубежные полнометражные мультфильмы

zyyx
 

Nikos70

Шкипер

Пост 13-Ноя-2011 14:27 (спустя 6 часов)

[Q] 

Спасибо!
[Профиль]  [ЛС] 

CHARLI2236

1089

Пост 30-Окт-2012 13:03 (спустя 11 месяцев 16 дней)

[Q] 

спс

_________________
[Профиль]  [ЛС] 

shalonina

Гроза морей

Пост 26-Авг-2014 17:23 (спустя 1 год 9 месяцев)

[Q] 

помогу с раздачей..............................................

_________________
[Профиль]  [ЛС] 
Показать сообщения:    
Ответить на тему

Текущее время: Сегодня 16:17

Часовой пояс: GMT + 4



Вы не можете начинать темы
Вы не можете отвечать на сообщения
Вы не можете редактировать свои сообщения
Вы не можете удалять свои сообщения
Вы не можете голосовать в опросах
Вы не можете прикреплять файлы к сообщениям
Вы не можете скачивать файлы

▼ Вниз