ML
     
  Уважаемый Гость!
Вы можете поддержать проект и зарегистрироваться у наших партнеров - онлайн-стратегия MyLands. При регистрации в игре Вы получите код, который сможете активировать после регистрации на pirat.ca и получить 1000 дублонов.

Ваш код:
b70663c760e7cd2521b8e123786cdd788200e3bd
 
     

Изменчивые басни: Черепаха против Зайца / Unstable Fables: Tortoise vs. Hare (Ховард Э. Бэйкер / Howard E. Baker) [2008 г., комедия, приключения, семейный, DVDRip] (Dub)

Ответить на тему
 
Автор
Сообщение

Пост 13-Ноя-2011 14:40

[Q] 

Sirota

Легенда

Изменчивые басни: Черепаха против Зайца / Unstable Fables: Tortoise vs. Hare Год выпуска: 2008
Мировая премьера: 12 сентября 2008
Производство: США
Жанр: комедия, приключения, семейный
Продолжительность: 01.15.57
Перевод: профессиональный (полное дублирование)
Оригинальный аудиопоток: Английский
Режиссер: Ховард Э. Бэйкер / Howard E. Baker
В ролях: Дрейк Белл,
Крис Элвуд,
Вивика А. Фокс,
Адам Фридман,
Дэнни Гловер,
Джей Лено,
Нолан Норт,
Кеке Палмер,
Jenni Pulos,
Стив Уилкокс
Описание: Спустя пятнадцать лет после их известной гонки, черепаха и заяц снова участвуют в забеге. Но на этот раз они участвуют со своими детьми. В результате вокруг них происходит столько событий, которые важны больше, чем сами соревнования.
Доп. информация: сценарий Том Мартин
продюсер Kristin Dornig, Arish Fyzee, Лиза Хенсон,
композитор Джим Лэнг,
художник Рубен Чавез,
монтаж Том Сандерс
IMDB, КиноПоиск
Источник/Качество: DVDRip
Формат: AVI
Видео кодек: XviD
Аудио кодек: AC3
Видео: 704x384 (1.83:1), 23.976 fps, XviD MPEG-4 ~1669 kbps avg, 0.26 bit/pixel
Аудио: Rus 48 kHz, AC3 Dolby Digital, 3/2 (L,C,R,l,r) + LFE ch, ~448.00 kbps avg
Аудио #2: Eng 48 kHz, AC3 Dolby Digital, 3/2 (L,C,R,l,r) + LFE ch, ~448.00 kbps avg
Субтитры: нет
General
Format : AVI
Format/Info : Audio Video Interleave
File size : 1.37 GiB
Duration : 1h 15mn
Overall bit rate : 2 581 Kbps
Writing application : VirtualDubMod 1.5.10.2 (build 2542/release)
Writing library : VirtualDubMod build 2542/release
Video #0
ID : 0
Format : MPEG-4 Visual
Format profile : [email protected]
Format settings, BVOP : Yes
Format settings, QPel : No
Format settings, GMC : No warppoints
Format settings, Matrix : Default (MPEG)
Muxing mode : Packed bitstream
Codec ID : XVID
Codec ID/Hint : XviD
Duration : 1h 15mn
Bit rate : 1 671 Kbps
Width : 704 pixels
Height : 384 pixels
Display aspect ratio : 16:9
Frame rate : 23.976 fps
Resolution : 24 bits
Colorimetry : 4:2:0
Scan type : Progressive
Bits/(Pixel*Frame) : 0.258
Stream size : 907 MiB (65%)
Writing library : XviD 1.2.0.dev47 (UTC 2006-11-01)
Audio #1
ID : 1
Format : AC-3
Format/Info : Audio Coding 3
Codec ID : 2000
Duration : 1h 15mn
Bit rate mode : Constant
Bit rate : 448 Kbps
Channel(s) : 6 channels
Channel positions : Front: L C R, Surround: L R, LFE
Sampling rate : 48.0 KHz
Video delay : 1s 0ms
Stream size : 243 MiB (17%)
Alignment : Split accross interleaves
Interleave, duration : 42 ms (1.00 video frame)
Interleave, preload duration : 500 ms
Audio #2
ID : 2
Format : AC-3
Format/Info : Audio Coding 3
Codec ID : 2000
Duration : 1h 15mn
Bit rate mode : Constant
Bit rate : 448 Kbps
Channel(s) : 6 channels
Channel positions : Front: L C R, Surround: L R, LFE
Sampling rate : 48.0 KHz
Video delay : 1s 0ms
Stream size : 243 MiB (17%)
Alignment : Split accross interleaves
Interleave, duration : 42 ms (1.00 video frame)
Interleave, preload duration : 500 ms







Download / Скачать

Хотите скачать бесплатно? Зарегистрируйтесь на сайте (ссылка на регистрацию). Pirat.ca - самый быстрый торрент трекер в рунете!

Как скачивать  ·   Что такое торрент  ·   Рейтинг и ограничения

Пост 13-Ноя-2011 16:31 (спустя 1 час 51 минута)

Топик был перенесен из форума Мультипликация в форум Зарубежные полнометражные мультфильмы

zyyx
 

CHARLI2236

1089

Пост 30-Окт-2012 13:07 (спустя 11 месяцев 16 дней)

[Q] 

благодарю

_________________
[Профиль]  [ЛС] 
Показать сообщения:    
Ответить на тему

Текущее время: Сегодня 00:17

Часовой пояс: GMT + 4



Вы не можете начинать темы
Вы не можете отвечать на сообщения
Вы не можете редактировать свои сообщения
Вы не можете удалять свои сообщения
Вы не можете голосовать в опросах
Вы не можете прикреплять файлы к сообщениям
Вы не можете скачивать файлы

▼ Вниз