ML
     
  Уважаемый Гость!
Вы можете поддержать проект и зарегистрироваться у наших партнеров - онлайн-стратегия MyLands. При регистрации в игре Вы получите код, который сможете активировать после регистрации на pirat.ca и получить 1000 дублонов.

Ваш код:
8dcb839cf1b47e56d6dc42d17f26b3e4822e9aee
 
     

Заботливые мишки спешат на помощь / Care Bears to the Rescue (Давис Дои, Ларри Хьюстон / Davis Doi, Larry Houston) [2010 г., приключения, семейный, детский, DVDRip] (MVO)

Ответить на тему
 
Автор
Сообщение

Пост 13-Ноя-2011 15:25

[Q] 

Sirota

Легенда

Заботливые мишки спешат на помощь / Care Bears to the Rescue Год выпуска: 2010
Производство: США
Жанр: приключения, семейный, детский
Продолжительность: 01:05:16
Перевод: профессиональный (многоголосый, закадровый)
Режиссер: Давис Дои, Ларри Хьюстон / Davis Doi, Larry Houston
В ролях: Стефани Бирд, Стивен Уйметт, Трэйси Хойт, Рон Рубен, Скотт МакКорд, Линда Бэллентайн
Описание: Продолжение понравившегося нам и нашим детям мультфильма про чудных медвежат, возомнивших себя спасителями, и теперь они просто не представляют себя без этой полюбившейся им работы…
Сэмпл, IMDB,
Источник/Качество: DVDRip
Формат: AVI
Видео кодек: XviD
Аудио кодек: AC3
Видео: 720x400 (1.80:1), 29.970 fps, XviD MPEG-4 ~2087 kbps avg, 0.24 bit/pixel
Аудио: Rus 48 kHz, AC3 Dolby Digital, 3/2 (L,C,R,l,r) + LFE ch, ~448.00 kbps avg
Аудио #2: Eng 48 kHz, AC3 Dolby Digital, 3/2 (L,C,R,l,r) + LFE ch, ~448.00 kbps avg
Субтитры: нет
General
Format : AVI
Format/Info : Audio Video Interleave
File size : 1.37 GiB
Duration : 1h 5mn
Overall bit rate : 3 002 Kbps
Writing application : VirtualDubMod 1.5.10.2 (build 2540/release)
Writing library : VirtualDubMod build 2540/release
Video #0
ID : 0
Format : MPEG-4 Visual
Format profile : [email protected]
Format settings, BVOP : Yes
Format settings, QPel : No
Format settings, GMC : No warppoints
Format settings, Matrix : Default (MPEG)
Muxing mode : Packed bitstream
Codec ID : XVID
Codec ID/Hint : XviD
Duration : 1h 5mn
Bit rate : 2 088 Kbps
Width : 720 pixels
Height : 400 pixels
Display aspect ratio : 16:9
Frame rate : 29.970 fps
Resolution : 24 bits
Colorimetry : 4:2:0
Scan type : Progressive
Bits/(Pixel*Frame) : 0.242
Stream size : 975 MiB (70%)
Writing library : XviD 1.2.0SMP (UTC 2006-01-08)
Audio #1
ID : 1
Format : AC-3
Format/Info : Audio Coding 3
Codec ID : 2000
Duration : 1h 5mn
Bit rate mode : Constant
Bit rate : 448 Kbps
Channel(s) : 6 channels
Channel positions : Front: L C R, Surround: L R, LFE
Sampling rate : 48.0 KHz
Stream size : 209 MiB (15%)
Alignment : Split accross interleaves
Interleave, duration : 33 ms (1.00 video frame)
Interleave, preload duration : 500 ms
Audio #2
ID : 2
Format : AC-3
Format/Info : Audio Coding 3
Codec ID : 2000
Duration : 1h 5mn
Bit rate mode : Constant
Bit rate : 448 Kbps
Channel(s) : 6 channels
Channel positions : Front: L C R, Surround: L R, LFE
Sampling rate : 48.0 KHz
Stream size : 209 MiB (15%)
Alignment : Split accross interleaves
Interleave, duration : 33 ms (1.00 video frame)
Interleave, preload duration : 500 ms







Download / Скачать

Хотите скачать бесплатно? Зарегистрируйтесь на сайте (ссылка на регистрацию). Pirat.ca - самый быстрый торрент трекер в рунете!

Как скачивать  ·   Что такое торрент  ·   Рейтинг и ограничения

Дядя Витя

53982

Пост 13-Ноя-2011 16:19 (спустя 54 минуты)

[Q] 

это точно мишки ?

_________________
?
[Профиль]  [ЛС] 

Sirota ®

Легенда

4583

Пост 13-Ноя-2011 16:29 (спустя 10 минут)

[Q] 

это точно мишки ?
Точно.... только очень заботливые...

_________________
У меня два недостатка. Я слишком добрый и бью без предупреждения.
[Профиль]  [ЛС] 

Пост 13-Ноя-2011 16:31 (спустя 2 минуты)

Топик был перенесен из форума Мультипликация в форум Зарубежные полнометражные мультфильмы

zyyx
 

Дядя Витя

53982

Пост 13-Ноя-2011 18:28 (спустя 1 час 58 минут)

[Q] 

тада качну )) ребятёнку надеюсь понравицца ...
скорости бы, плиzz ...

_________________
?
[Профиль]  [ЛС] 

CHARLI2236

1098

Пост 30-Окт-2012 13:03 (спустя 11 месяцев 16 дней)

[Q] 

спасибо

_________________
[Профиль]  [ЛС] 
Показать сообщения:    
Ответить на тему

Текущее время: Сегодня 04:18

Часовой пояс: GMT + 4



Вы не можете начинать темы
Вы не можете отвечать на сообщения
Вы не можете редактировать свои сообщения
Вы не можете удалять свои сообщения
Вы не можете голосовать в опросах
Вы не можете прикреплять файлы к сообщениям
Вы не можете скачивать файлы

▼ Вниз