ML
     
  Уважаемый Гость!
Вы можете поддержать проект и зарегистрироваться у наших партнеров - онлайн-стратегия MyLands. При регистрации в игре Вы получите код, который сможете активировать после регистрации на pirat.ca и получить 1000 дублонов.

Ваш код:
9cfe162481db953a6549f32179d7b3900b8b8643
 
     

Уоллес и Громит: Дело о смертельной выпечке / Wallace and Gromith: A Matter Of Loaf And Death (Ник Парк / Nick Park) [2008 г., комедия, семейный, мультфильм, пластилиновая анимация, HD-DVD Rip]

Ответить на тему
 
Автор
Сообщение

Пост 13-Ноя-2011 16:04

[Q] 

Андря

Дело о смертельной выпечке / A Matter Of Loaf And Death
Год выпуска: 2008
Страна: Великобритания
Жанр: комедия, семейный, мультфильм, пластилиновая анимация
Продолжительность: 30 мин.
Перевод: многоголосый, закадровый
Режиссер: Ник Парк / Nick Park
В ролях: Питер Саллис,Сэлли Линдсэй,Мелисса Колье,Сара Лаборд,Джеральдин МакЮэн
Описание: Уоллес и Громит занялись пекарным бизнесом, превратив свой дом в настоящую пекарню, с духовками, роботизированными тестомешалками и старомодной ветряной мельницей на крыше. Их дела идут в гору, однако Громит обеспокоен последними событиями: в этом году уже 12 местных пекарей исчезли без следа. Но Уоллеса это не волнует. Все его мысли лишь об очаровательной Пиэлле Бэйкуэлл — бывшей рекламной модели выпечки Бейк-Лайт. Вскоре Громит понимает, что жизнь его хозяина под угрозой, и берется за расследование серии таинственных убийств, которое позже назовут «Делом о смертельной выпечке».
Качество: HD-DVD Rip
Формат: AVI
Видео кодек: DivX
Аудио кодек: AC3
Видео: 720 x 400; 24 fps; 2132 kbps
Аудио Русский: 48 kHz; 6 ch; 384.00 kbps; AC3 Dolby Digital
Аудио Английский: 48 kHz; 6 ch; 384.00 kbps; AC3 Dolby Digital
General
Complete name : Дело о смертельной выпечке(2008).avi
Format : AVI
Format/Info : Audio Video Interleave
File size : 561 MiB
Duration : 30mn 12s
Overall bit rate : 2 597 Kbps
Movie name : Уоллес и Громит: Дело о смертельной выпечке / Wallace and Gromit in 'A Matter of Loaf and Death' (2008)
Director : KiLR0Y (BDRip 1080)
Writing application : VirtualDubMod 1.5.10.2 (build 2540/release)
Copyright : HQ-ViDEO
Comment : 18.10.2009
Video
ID : 0
Format : MPEG-4 Visual
Format profile : Advanced [email protected]
Format settings, BVOP : Yes
Format settings, QPel : No
Format settings, GMC : No warppoints
Format settings, Matrix : Custom
Codec ID : XVID
Codec ID/Hint : XviD
Duration : 30mn 12s
Bit rate : 1 816 Kbps
Width : 720 pixels
Height : 400 pixels
Display aspect ratio : 16:9
Frame rate : 24.000 fps
Resolution : 8 bits
Colorimetry : 4:2:0
Scan type : Progressive
Bits/(Pixel*Frame) : 0.263
Stream size : 392 MiB (70%)
Writing library : XviD 1.2.1 (UTC 2008-12-04)
Audio #1
ID : 1
Format : AC-3
Format/Info : Audio Coding 3
Codec ID : 2000
Duration : 30mn 12s
Bit rate mode : Constant
Bit rate : 384 Kbps
Channel(s) : 6 channels
Channel positions : Front: L C R, Surround: L R, LFE
Sampling rate : 48.0 KHz
Stream size : 83.0 MiB (15%)
Alignment : Split accross interleaves
Interleave, duration : 42 ms (1.00 video frame)
Interleave, preload duration : 500 ms
Audio #2
ID : 2
Format : AC-3
Format/Info : Audio Coding 3
Codec ID : 2000
Duration : 30mn 12s
Bit rate mode : Constant
Bit rate : 384 Kbps
Channel(s) : 6 channels
Channel positions : Front: L C R, Surround: L R, LFE
Sampling rate : 48.0 KHz
Stream size : 83.0 MiB (15%)
Alignment : Split accross interleaves
Interleave, duration : 42 ms (1.00 video frame)
Interleave, preload duration : 500 ms




Download / Скачать

Хотите скачать бесплатно? Зарегистрируйтесь на сайте (ссылка на регистрацию). Pirat.ca - самый быстрый торрент трекер в рунете!

Как скачивать  ·   Что такое торрент  ·   Рейтинг и ограничения



Последний раз редактировалось: Андря (2011-11-15 12:26), всего редактировалось 3 раз(а)

Alexe10

Гроза морей

36

Пост 13-Ноя-2011 21:50 (спустя 5 часов)

[Q] 

Всем любителям Уоллеса и Громита, качать!!!
Но поддержать не могу, у другое качество
[Профиль]  [ЛС] 

Пост 13-Ноя-2011 23:46 (спустя 1 час 56 минут)

Топик был перенесен из форума Мультипликация в форум Зарубежные полнометражные мультфильмы

zyyx
 

mishasmith.sx4

Шкипер

Пост 03-Дек-2011 08:09 (спустя 19 дней)

[Q] 

спасибо,.. надо посмотреть....
[Профиль]  [ЛС] 

Syler

Шкипер

Пост 16-Дек-2012 16:52 (спустя 1 год)

[Q] 

[Профиль]  [ЛС] 
Показать сообщения:    
Ответить на тему

Текущее время: Сегодня 06:03

Часовой пояс: GMT + 4



Вы не можете начинать темы
Вы не можете отвечать на сообщения
Вы не можете редактировать свои сообщения
Вы не можете удалять свои сообщения
Вы не можете голосовать в опросах
Вы не можете прикреплять файлы к сообщениям
Вы не можете скачивать файлы

▼ Вниз