ML
     
  Уважаемый Гость!
Вы можете поддержать проект и зарегистрироваться у наших партнеров - онлайн-стратегия MyLands. При регистрации в игре Вы получите код, который сможете активировать после регистрации на pirat.ca и получить 1000 дублонов.

Ваш код:
c89b4b6523eaac3173e9a9c062ac1a19db575961
 
     

Уоллес и Громит: Стрижка на голо / wallace & gromit: in a close shave (Ник Парк / Nicholas Park) [1995 г., комедия, семейный, мультфильм, пластилиновая анимация, DVD Rip]

Ответить на тему
 
Автор
Сообщение

Пост 13-Ноя-2011 17:41

[Q] 

Андря

Уоллес и Громит: Стрижка на голо / Wallace & Gromit: А close shave
Год выпуска: 1995
Производство: Великобритания
Жанр: комедия, семейный, мультфильм, криминал, пластилиновая анимация
Продолжительность: 29:54
Перевод: Профессиональный(одноголосый)
Режиссер: Ник Парк / Nicholas Wulstan Park
Автор сценария: Ник Парк / Nicholas Wulstan Park
Описание: История, в которой Уоллес «увлекается» владелицей магазина по продаже шерсти, а город потрясает массовое исчезновение овец! И как Вы думаете, кто был признан виновным во всех преступлениях? Несчастный малыш Громит! Теперь Уоллесу нужно во что бы то ни стало спасти своего друга! Групповая эквилибристика овец на скоростном мотоцикле, стрижка «наголо» собаки-киборга и дебют Громита в качестве асса авиации!
Награды мультфильма: Мультфильм получил премию Оскар в номинации «Лучший анимационный короткометражный фильм» в 1995 году. Самый кассовый мультфильм года.
Качество: DVD Rip
Формат: AVI
Видео кодек: DivX
Аудио кодек: MPEG Audio
Видео: DivX 3 512x384 29.97fps
Аудио: MPEG Audio Layer 3 48000Hz stereo 100kbps
General
Complete name : Стрижка под ноль(1995).avi
Format : AVI
Format/Info : Audio Video Interleave
File size : 221 MiB
Duration : 29mn 54s
Overall bit rate : 1 035 Kbps
Writing application : Nandub v1.0rc2
Writing library : Nandub build 1853/release
Video
ID : 0
Format : MPEG-4 Visual
Codec ID : DIV3
Codec ID/Hint : DivX 3 Low
Duration : 29mn 54s
Bit rate : 920 Kbps
Width : 512 pixels
Height : 384 pixels
Display aspect ratio : 4:3
Frame rate : 29.970 fps
Resolution : 8 bits
Bits/(Pixel*Frame) : 0.156
Stream size : 197 MiB (89%)
Audio
ID : 1
Format : MPEG Audio
Format version : Version 1
Format profile : Layer 3
Format_Settings_Mode : Joint stereo
Codec ID : 55
Codec ID/Hint : MP3
Duration : 29mn 54s
Bit rate mode : Variable
Bit rate : 101 Kbps
Channel(s) : 2 channels
Sampling rate : 48.0 KHz
Video delay : 21ms
Stream size : 21.5 MiB (10%)
Alignment : Aligned on interleaves
Interleave, duration : 24 ms (0.72 video frame)
Interleave, preload duration : 264 ms
Download / Скачать

Хотите скачать бесплатно? Зарегистрируйтесь на сайте (ссылка на регистрацию). Pirat.ca - самый быстрый торрент трекер в рунете!

Как скачивать  ·   Что такое торрент  ·   Рейтинг и ограничения



Последний раз редактировалось: Андря (2011-11-15 12:25), всего редактировалось 2 раз(а)

Пост 13-Ноя-2011 23:46 (спустя 6 часов)

Топик был перенесен из форума Мультипликация в форум Зарубежные полнометражные мультфильмы

zyyx
 

Феонолини

Шкипер

Пост 18-Апр-2014 15:54 (спустя 2 года 5 месяцев)

[Q] 

Раздавать будем или как?
Сама потом на раздаче сидеть буду!

_________________
Где есть свет, всегда есть тень. Под светом счастья... Всегда есть тень отчаяния ...
Хун Мин
[Профиль]  [ЛС] 
Показать сообщения:    
Ответить на тему

Текущее время: Сегодня 22:32

Часовой пояс: GMT + 4



Вы не можете начинать темы
Вы не можете отвечать на сообщения
Вы не можете редактировать свои сообщения
Вы не можете удалять свои сообщения
Вы не можете голосовать в опросах
Вы не можете прикреплять файлы к сообщениям
Вы не можете скачивать файлы

▼ Вниз