ML
     
  Уважаемый Гость!
Вы можете поддержать проект и зарегистрироваться у наших партнеров - онлайн-стратегия MyLands. При регистрации в игре Вы получите код, который сможете активировать после регистрации на pirat.ca и получить 1000 дублонов.

Ваш код:
c89b4b6523eaac3173e9a9c062ac1a19db575961
 
     

Скуби-Ду! Истории летнего лагеря / Scooby-Doo! Camp Scare (Этан Сполдинг / Ethan Spaulding) [2010 г., комедия, приключения, семейный, HDRip] (Dub)

Ответить на тему
 
Автор
Сообщение

Пост 13-Ноя-2011 18:22

[Q] 

Sirota

Легенда

Скуби-Ду! Истории летнего лагеря / Scooby-Doo! Camp Scare Год выпуска: 2010
Мировая премьера: 14 сентября 2010
Дата выхода DVD: 14 сентября 2010, «Юниверсал Пикчерс Рус»
Производство: США
Жанр: комедия, приключения, семейный
Продолжительность: 01:12:31
Перевод: профессиональный (полное дублирование)
Оригинальный аудиопоток: Английский
Автор(ы) перевода: Дмитрий Филимонов
Режиссер: Этан Сполдинг / Ethan Spaulding
В ролях: Фрэнк Уэлкер,
Минди Кон,
Мэттью Лиллард,
Грей ДеЛайл,
Ди Брэдли Бейкер,
Марк Хэмилл,
Фил ЛаМарр,
Скотт Менвилль,
Стивен Рут,
Тара Стронг
Описание: Добро пожаловать в лагерь «Лосёнок», где приветливые вожатые, бесконечные мероприятия и много жутких местных легенд! Кстати, каждый раз, когда кто-то рассказывает историю о призраках, жуткие существа оживают! Но команду Корпорации Тайн не так легко испугать, так что собирайтесь вокруг костра, чтобы поджарить плохих парней. Скуби-Ду, Шэгги, Фредди, Дафни и Велма ищут подсказки для разгадки тайн Дровосека, Рыбака и Банши Чёрного Каньона. И, конечно, Шэгги и Скуби-Ду идут по горячим следам в деле «А что у нас на ужин»! Присоединяйтесь к летнему веселью с Корпорацией Тайн в этом уморительном, полнометражном мультфильме, который придаёт новый смысл понятию «дух лагеря»!
Доп. информация: сценарий Джед Элинофф, Скотт Томас, Уильям Ханна,
продюсер Спайк Брандт, Тони Червоне, Сэм Реджистер,
композитор Роберт Дж. Крал,
художник Тед Блэкман, Эрик Семонес,
монтаж Джозеф Молинари
Сэмпл, IMDB, КиноПоиск
Источник/Качество: HDRip источник BDRip 1080p
Формат: AVI
Видео кодек: XviD
Аудио кодек: AC3
Видео: 720x400 (1.80:1), 23.976 fps, XviD build 63 ~2237 kbps avg, 0.32 bit/pixel
Аудио: Rus 48 kHz, AC3 Dolby Digital, 2/0 (L,R) ch, ~192.00 kbps avg
Аудио #2: Eng 48 kHz, AC3 Dolby Digital, 3/2 (L,C,R,l,r) + LFE ch, ~448.00 kbps avg
Субтитры: нет
General
Format : AVI
Format/Info : Audio Video Interleave
File size : 1.47 GiB
Duration : 1h 12mn
Overall bit rate : 2 893 Kbps
Writing application : VirtualDubMod 1.5.10.2 (build 2540/release)
Writing library : VirtualDubMod build 2540/release
Video #0
ID : 0
Format : MPEG-4 Visual
Format profile : [email protected]
Format settings, BVOP : Yes
Format settings, QPel : No
Format settings, GMC : No warppoints
Format settings, Matrix : Custom
Codec ID : XVID
Codec ID/Hint : XviD
Duration : 1h 12mn
Bit rate : 2 238 Kbps
Width : 720 pixels
Height : 400 pixels
Display aspect ratio : 16:9
Frame rate : 23.976 fps
Resolution : 24 bits
Colorimetry : 4:2:0
Scan type : Progressive
Bits/(Pixel*Frame) : 0.324
Stream size : 1.13 GiB (77%)
Writing library : XviD 63
Audio #1
ID : 1
Format : AC-3
Format/Info : Audio Coding 3
Codec ID : 2000
Duration : 1h 12mn
Bit rate mode : Constant
Bit rate : 192 Kbps
Channel(s) : 2 channels
Channel positions : L R
Sampling rate : 48.0 KHz
Video delay : 300ms
Stream size : 99.6 MiB (7%)
Alignment : Split accross interleaves
Interleave, duration : 42 ms (1.00 video frame)
Interleave, preload duration : 500 ms
Audio #2
ID : 2
Format : AC-3
Format/Info : Audio Coding 3
Codec ID : 2000
Duration : 1h 12mn
Bit rate mode : Constant
Bit rate : 448 Kbps
Channel(s) : 6 channels
Channel positions : Front: L C R, Surround: L R, LFE
Sampling rate : 48.0 KHz
Stream size : 232 MiB (15%)
Alignment : Split accross interleaves
Interleave, duration : 42 ms (1.00 video frame)
Interleave, preload duration : 500 ms







Download / Скачать

Хотите скачать бесплатно? Зарегистрируйтесь на сайте (ссылка на регистрацию). Pirat.ca - самый быстрый торрент трекер в рунете!

Как скачивать  ·   Что такое торрент  ·   Рейтинг и ограничения

Пост 13-Ноя-2011 18:31 (спустя 8 минут)

Топик был перенесен из форума Мультипликация в форум Зарубежные полнометражные мультфильмы

zyyx
 

Vlad__treker

Морской Волк

184

Пост 18-Янв-2012 15:59 (спустя 2 месяца 4 дня)

[Q] 

Sirota, оставайтесь на раздаче пожалуйста.

_________________
...:::Pirat.ca:::...
..:::The Best:::...
[Профиль]  [ЛС] 

Windows

Морской Волк

Пост 21-Янв-2012 21:08 (спустя 3 дня)

[Q] 

Сенкью! =)
[Профиль]  [ЛС] 

Alina23

Пост 06-Авг-2012 09:36 (спустя 6 месяцев 15 дней)

[Q] 

спасибки bq прикольный мультик - взрослым тоже можно поторчать.
[Профиль]  [ЛС] 

CHARLI2236

1098

Пост 30-Окт-2012 13:33 (спустя 2 месяца 24 дня)

[Q] 

спасибо

_________________
[Профиль]  [ЛС] 

viktor41

Шкипер

Пост 29-Окт-2013 17:49 (спустя 11 месяцев)

[Q] 

Спасибочки ! Супер! Автору респект!!!
[Профиль]  [ЛС] 
Показать сообщения:    
Ответить на тему

Текущее время: Сегодня 22:32

Часовой пояс: GMT + 4



Вы не можете начинать темы
Вы не можете отвечать на сообщения
Вы не можете редактировать свои сообщения
Вы не можете удалять свои сообщения
Вы не можете голосовать в опросах
Вы не можете прикреплять файлы к сообщениям
Вы не можете скачивать файлы

▼ Вниз