ML
     
  Уважаемый Гость!
Вы можете поддержать проект и зарегистрироваться у наших партнеров - онлайн-стратегия MyLands. При регистрации в игре Вы получите код, который сможете активировать после регистрации на pirat.ca и получить 1000 дублонов.

Ваш код:
b70663c760e7cd2521b8e123786cdd788200e3bd
 
     

Космос - территория смерти / Dead Space - Downfall (Чак Паттон / Chuck Patton) [2008 г., Ужасы, триллер, мультфильм, DVDRip]

Ответить на тему
 
Автор
Сообщение

Пост 28-Окт-2011 16:44

[Q] 

racom

Космос - территория смерти / Dead Space - Downfall
Год выпуска: 2008
Страна: США
Жанр: Ужасы, триллер, мультфильм
Продолжительность: 01:11:19
Перевод: Профессиональный (многоголосый, закадровый)
Режиссер: Чак Паттон / Chuck Patton
Описание: Бороздящий космические просторы горно-исследовательский корабль «Исхимура» натыкается на загадочную чужеродную Метку, обозначающую особую зону. Команда амбициозного экипажа уверена, что они обнаружили подтверждение существования наших создателей. Но…исследование и смещение Метки высвобождает НЕЧТО, относящиеся к инопланетному виду, которое долгое время было погребено на заброшенной отдаленной планете. Группа горняков и члены космического экипажа вынуждены вступить в отчаянную борьбу за выживание с МОНСТРОМ, с которым человечество доселе не сталкивалось.
Качество: DVDRip
Формат: AVI
Видео кодек: MPEG-4 Visual XVID
Аудио кодек: AC-3
Видео: 688x304, 2 298 Kbps, 25.000 fps
Аудио: Russian, 448 Kbps, 6 channels, 48.0 KHz
Video
ID : 0
Format : MPEG-4 Visual
Format profile : Advanced [email protected]
Format settings, BVOP : 1
Format settings, QPel : No
Format settings, GMC : No warppoints
Format settings, Matrix : Default (H.263)
Muxing mode : Packed bitstream
Codec ID : XVID
Codec ID/Hint : XviD
Duration : 1h 11mn
Bit rate : 2 298 Kbps
Width : 688 pixels
Height : 304 pixels
Display aspect ratio : 2.25:1
Frame rate : 25.000 fps
Color space : YUV
Chroma subsampling : 4:2:0
Bit depth : 8 bits
Scan type : Progressive
Compression mode : Lossy
Bits/(Pixel*Frame) : 0.440
Stream size : 1.14 GiB (83%)
Writing library : XviD 1.1.0 (UTC 2005-11-22)
Audio
ID : 1
Format : AC-3
Format/Info : Audio Coding 3
Mode extension : CM (complete main)
Codec ID : 2000
Duration : 1h 11mn
Bit rate mode : Constant
Bit rate : 448 Kbps
Channel(s) : 6 channels
Channel positions : Front: L C R, Side: L R, LFE
Sampling rate : 48.0 KHz
Bit depth : 16 bits
Compression mode : Lossy
Stream size : 229 MiB (16%)
Alignment : Aligned on interleaves
Interleave, duration : 40 ms (1.00 video frame)
Interleave, preload duration : 512 ms


Download / Скачать

Хотите скачать бесплатно? Зарегистрируйтесь на сайте (ссылка на регистрацию). Pirat.ca - самый быстрый торрент трекер в рунете!

Как скачивать  ·   Что такое торрент  ·   Рейтинг и ограничения



Последний раз редактировалось: racom (2011-11-12 12:58), всего редактировалось 7 раз(а)

Пост 30-Окт-2011 02:43 (спустя 1 день 9 часов)

Топик был перенесен из форума Художественные фильмы (Зарубежное кино) в форум Зарубежные полнометражные мультфильмы

Чужая
 

rostimi

Лоцман

Пост 03-Ноя-2011 14:34 (спустя 5 дней)

[Q] 

Давай вторую часть!!!))
[Профиль]  [ЛС] 

racom ®

2341

Пост 12-Ноя-2011 15:12 (спустя 9 дней)

[Q] 

залил 2ю часть, жду проверки)))
Мёртвый Космос: Последствия / Dead Space: Aftermath (Майкл Д’Иса-Хоган / Michael D'Isa-Hogan) (мультфильм, ужасы, фантастика 2011г BDRip 720p)

_________________
[Профиль]  [ЛС] 

XAPOH

Гроза морей

Пост 23-Ноя-2011 14:22 (спустя 10 дней)

[Q] 

Спасибо, заценим.

_________________

<<<Dolus an virtus quis in hoste requirat?>>>
Intel Core i7 2600, 16Gb Ram, GTX 670, SSD.
PS4.
[Профиль]  [ЛС] 

aliennatali

Лоцман

Пост 27-Ноя-2011 19:16 (спустя 4 дня)

[Q] 

Спасибо.сейчас посмотрю

_________________
не будите во мне зверя!
[Профиль]  [ЛС] 

rock_rebel

Корсар

227

Пост 24-Май-2012 10:10 (спустя 5 месяцев 26 дней)

[Q] 

что то скучноват как помне мульт...

_________________
Здесь каждый гад хочет стать депутатом,
Чтоб ездить по странам и эмиратам,
А я хочу стать пулей в стволе,
Чтоб помнили гады всегда обо мне.
[Профиль]  [ЛС] 

Nyan_Cat

Штурман

Пост 17-Авг-2012 02:33 (спустя 2 месяца 23 дня)

[Q] 

Вторая часть так себе, отталкивают разнопёрые рисовки
[Профиль]  [ЛС] 
Показать сообщения:    
Ответить на тему

Текущее время: Сегодня 00:24

Часовой пояс: GMT + 4



Вы не можете начинать темы
Вы не можете отвечать на сообщения
Вы не можете редактировать свои сообщения
Вы не можете удалять свои сообщения
Вы не можете голосовать в опросах
Вы не можете прикреплять файлы к сообщениям
Вы не можете скачивать файлы

▼ Вниз