ML
     
  Уважаемый Гость!
Вы можете поддержать проект и зарегистрироваться у наших партнеров - онлайн-стратегия MyLands. При регистрации в игре Вы получите код, который сможете активировать после регистрации на pirat.ca и получить 1000 дублонов.

Ваш код:
a01a592a88af5f9996a6d1baec61b18a1769954d
 
     

Рио / Rio (Карлос Салдана / Carlos Saldanha) [2011 г., мультфильм, комедия, приключения, семейный, DVDRip] (Dub)

Ответить на тему
 
Автор
Сообщение

Пост 14-Ноя-2011 14:06

[Q] 

AlexMaksto

Штурман

Рио / Rio
Год выпуска: 2011
Мировая премьера: 3 апреля 2011
Российская премьера: 7 апреля 2011
Дата выхода DVD: 12 мая 2011
Производство: США / Blue Sky Studios, Twentieth Century Fox Animation
Жанр: мультфильм, комедия, приключения, семейный
Продолжительность: 01:32:00
Перевод: профессиональный (Полное дублирование)
Оригинальный аудиопоток: Отсутствует
Режиссер: Карлос Салдана / Carlos Saldanha
В ролях: Карен Дишер, Джейсон Фриччион, София Скарпа Салдана, Лесли Манн, Келли Китон, Джесси Айзенберг, Ванда Сайкес, Джейн Линч, Родриго Санторо, Грасинья Лепоранс.
Описание: Красивый и очень недалёкий попугай, родившийся в неволе в небольшом городке штата Миннесота, улетает в поисках приключений, на родину предков, в Рио-де-Жанейро.
Сэмпл, IMDB, КиноПоиск
Источник/Качество: DVDRip
Формат: AVI
Видео кодек: XviD
Аудио кодек: AC3
Видео: 1735 kb/s, 720x304, 25.00fps
Аудио: Dolby AC3 48000Hz 6ch 384kbps
General
Complete name : Q:\Rio.2011.D.DVDRip.ELEKTRI4KA.avi
Format : AVI
Format/Info : Audio Video Interleave
File size : 1.37 GiB
Duration : 1h 32mn
Overall bit rate : 2 129 Kbps
Writing application : VirtualDubMod 1.5.4.1 (build 2178/release)
Writing library : VirtualDubMod build 2178/release
Video
ID : 0
Format : MPEG-4 Visual
Format profile : Advanced [email protected]
Format settings, BVOP : 2
Format settings, QPel : No
Format settings, GMC : No warppoints
Format settings, Matrix : Custom
Codec ID : XVID
Codec ID/Hint : XviD
Duration : 1h 32mn
Bit rate : 1 735 Kbps
Width : 720 pixels
Height : 304 pixels
Display aspect ratio : 2.35:1
Frame rate : 25.000 fps
Color space : YUV
Chroma subsampling : 4:2:0
Bit depth : 8 bits
Scan type : Progressive
Compression mode : Lossy
Bits/(Pixel*Frame) : 0.317
Stream size : 1.12 GiB (82%)
Writing library : XviD 58
Audio
ID : 1
Format : AC-3
Format/Info : Audio Coding 3
Mode extension : CM (complete main)
Codec ID : 2000
Duration : 1h 32mn
Bit rate mode : Constant
Bit rate : 384 Kbps
Channel(s) : 6 channels
Channel positions : Front: L C R, Side: L R, LFE
Sampling rate : 48.0 KHz
Bit depth : 16 bits
Compression mode : Lossy
Stream size : 253 MiB (18%)
Alignment : Split accross interleaves
Interleave, duration : 40 ms (1.00 video frame)
Interleave, preload duration : 500 ms


Download / Скачать

Хотите скачать бесплатно? Зарегистрируйтесь на сайте (ссылка на регистрацию). Pirat.ca - самый быстрый торрент трекер в рунете!

Как скачивать  ·   Что такое торрент  ·   Рейтинг и ограничения



Последний раз редактировалось: AlexMaksto (2011-11-14 16:45), всего редактировалось 2 раз(а)

Пост 14-Ноя-2011 17:04 (спустя 2 часа 57 минут)

Топик был перенесен из форума Мультипликация в форум Новинки (HD|DVD|BD|TV|SAT|PDTV| - Rips)

Sirota
 

ппавел

Шкипер

Пост 01-Дек-2011 19:30 (спустя 17 дней)

[Q] 

спасибки!
[Профиль]  [ЛС] 

GarySk

Корсар

Пост 07-Дек-2011 21:00 (спустя 6 дней)

[Q] 

Пасибо!
[Профиль]  [ЛС] 

смит

Штурман

Пост 11-Фев-2012 19:41 (спустя 2 месяца 3 дня)

[Q] 

[Профиль]  [ЛС] 

kefir

Штурман

Пост 22-Мар-2012 17:32 (спустя 1 месяц 10 дней)

[Q] 

спасибо)
[Профиль]  [ЛС] 

turluk

Лоцман

Пост 30-Мар-2012 16:48 (спустя 7 дней)

[Q] 

спасибо!для сына скачаю
[Профиль]  [ЛС] 

Элизиотта

Морской Волк

329

Пост 15-Май-2012 17:07 (спустя 1 месяц 16 дней)

[Q] 

Мультфильм неплохой, красочный)
[Профиль]  [ЛС] 

lebonnet

Флибустьер

Пост 11-Окт-2012 23:48 (спустя 4 месяца 27 дней)

[Q] 

[Профиль]  [ЛС] 

dante456280

Лоцман

Пост 01-Дек-2012 16:02 (спустя 1 месяц 19 дней)

[Q] 

anime78
[Профиль]  [ЛС] 

ysd

Корсар

Пост 13-Дек-2012 15:46 (спустя 11 дней)

[Q] 

[Профиль]  [ЛС] 

_Red_Fox_

Мичман

Пост 01-Мар-2014 16:27 (спустя 1 год 2 месяца)

[Q] 

Спасибо!!!
[Профиль]  [ЛС] 

Verg

Корсар

Пост 30-Мар-2014 14:11 (спустя 28 дней)

[Q] 

спаааааасииибо
[Профиль]  [ЛС] 

alex denver71

Флибустьер

Пост 01-Апр-2014 18:49 (спустя 2 дня 4 часа)

[Q] 

Автору респект!!! Хороший мультик для ребятни!!!!! bf
[Профиль]  [ЛС] 

Alien2000

Легенда

Пост 03-Янв-2015 14:54 (спустя 9 месяцев 1 день)

[Q] 

Спасибо.
Автору респект!!! Лови бочку
[Профиль]  [ЛС] 
Показать сообщения:    
Ответить на тему

Текущее время: Сегодня 09:50

Часовой пояс: GMT + 4



Вы не можете начинать темы
Вы не можете отвечать на сообщения
Вы не можете редактировать свои сообщения
Вы не можете удалять свои сообщения
Вы не можете голосовать в опросах
Вы не можете прикреплять файлы к сообщениям
Вы не можете скачивать файлы

▼ Вниз