ML
     
  Уважаемый Гость!
Вы можете поддержать проект и зарегистрироваться у наших партнеров - онлайн-стратегия MyLands. При регистрации в игре Вы получите код, который сможете активировать после регистрации на pirat.ca и получить 1000 дублонов.

Ваш код:
ea554e7ed3eacceeae87a8b30a9de3f086c18a84
 
     

Бэтмен: Год первый / Batman: Year One (Сэм Лью, Лоурен Монтгомери / Sam Liu, Lauren Montgomery) [2011 г., Мультфильм, HDRip] (VO)

Ответить на тему
 
Автор
Сообщение

Пост 15-Ноя-2011 03:40

[Q] 

Ksandr

Флибустьер

Бэтмен: Год первый / Batman: Year One
Год выпуска: 2011
Мировая премьера: 18 октября 2011
Производство: США
Жанр: Мультфильм
Продолжительность: 01:04:08
Перевод: Профессиональный (одноголосый, закадровый)
Оригинальный аудиопоток: Английский
Режиссер: Сэм Лью, Лоурен Монтгомери / Sam Liu, Lauren Montgomery
В ролях: Брайан Крэнстон, Бен МакКензи, Элиза Душку, Джон Полито, Алекс Рокко, Кэти Сакхофф, Сара Бэллэнтайн, Джефф Беннетт, Стивен Блум, Роурк Критчлоу
Описание: История становления героя в маске летучей мыши. По молодости Брюс Уэйн на пути борьбы с преступностью набивает шишку за шишкой, параллельно выстраивая рабочие взаимоотношения с детективом Джеймсом Гордоном. Последний, кстати сказать, не просто играет привычную роль честного копа, но еще и живет личной жизнью, в которую входит и романтическая привязанность к коллеге по работе Саре Эссен. А в это время Селина Кайл начинает менять свою жизнь, начиная непосредственно с собственной личности.
Источник/Качество: HDRip
Формат: AVI
Видео кодек: XviD
Аудио кодек: MP3
Видео: 720x400, ~1275 kbps, 23,976 fps
Аудио: RUS: 2ch, 128 kbps, 48,0 КГц
Аудио #2: ENG: 2ch, 128 kbps, 48,0 КГц
Общее
Полное имя : Batman Year One[pirat.ca].avi
Формат : AVI
Формат/Информация : Audio Video Interleave
Размер файла : 709 Мбайт
Продолжительность : 1 ч. 4 м.
Общий поток : 1545 Кбит/сек
Программа кодирования : VirtualDubModRus 1.5.10.2 (build 2542/release)
Библиотека кодирования : VirtualDubMod build 2542/release
Видео
Идентификатор : 0
Формат : MPEG-4 Visual
Профиль формата : Advanced [email protected]
Параметр BVOP формата : 2
Параметр QPel формата : Нет
Параметр GMC формата : Без точки перехода
Параметр матрицы формата : Default (H.263)
Идентификатор кодека : XVID
Идентификатор кодека/Подсказка : XviD
Продолжительность : 1 ч. 4 м.
Битрейт : 1275 Кбит/сек
Ширина : 720 пикселей
Высота : 400 пикселей
Соотношение сторон : 16:9
Частота кадров : 23,976 кадра/сек
Цветовое пространство : YUV
Субдискретизация насыщенности : 4:2:0
Битовая глубина : 8 бит
Тип развёртки : Прогрессивная
Метод сжатия : С потерями
Бит/(Пиксели*Кадры) : 0.185
Размер потока : 585 Мбайт (83%)
Библиотека кодирования : XviD 1.2.1 (UTC 2008-12-04)
Аудио #1
Идентификатор : 1
Формат : MPEG Audio
Версия формата : Version 1
Профиль формата : Layer 3
Режим : Joint stereo
Идентификатор кодека : 55
Идентификатор кодека/Подсказка : MP3
Продолжительность : 1 ч. 4 м.
Вид битрейта : Постоянный
Битрейт : 128 Кбит/сек
Каналы : 2 канала
Частота : 48,0 КГц
Метод сжатия : С потерями
Размер потока : 58,7 Мбайт (8%)
Выравнивание : Соединение по промежуткам
Продолжительность промежутка : 42 мс. (1,00 видеокадр)
Время предзагрузки промежутка : 504 мс.
Аудио #2
Идентификатор : 2
Формат : MPEG Audio
Версия формата : Version 1
Профиль формата : Layer 3
Режим : Joint stereo
Расширение режима : MS Stereo
Идентификатор кодека : 55
Идентификатор кодека/Подсказка : MP3
Продолжительность : 1 ч. 4 м.
Вид битрейта : Постоянный
Битрейт : 128 Кбит/сек
Каналы : 2 канала
Частота : 48,0 КГц
Метод сжатия : С потерями
Размер потока : 58,7 Мбайт (8%)
Выравнивание : Соединение по промежуткам
Продолжительность промежутка : 42 мс. (1,00 видеокадр)
Время предзагрузки промежутка : 504 мс.
Библиотека кодирования : LAME3.97


Download / Скачать

Хотите скачать бесплатно? Зарегистрируйтесь на сайте (ссылка на регистрацию). Pirat.ca - самый быстрый торрент трекер в рунете!

Как скачивать  ·   Что такое торрент  ·   Рейтинг и ограничения

Пост 15-Ноя-2011 07:52 (спустя 4 часа)

Топик был перенесен из форума Мультипликация в форум Зарубежные полнометражные мультфильмы

CaptRom
 
Показать сообщения:    
Ответить на тему

Текущее время: Сегодня 12:12

Часовой пояс: GMT + 4



Вы не можете начинать темы
Вы не можете отвечать на сообщения
Вы не можете редактировать свои сообщения
Вы не можете удалять свои сообщения
Вы не можете голосовать в опросах
Вы не можете прикреплять файлы к сообщениям
Вы не можете скачивать файлы

▼ Вниз