ML
     
  Уважаемый Гость!
Вы можете поддержать проект и зарегистрироваться у наших партнеров - онлайн-стратегия MyLands. При регистрации в игре Вы получите код, который сможете активировать после регистрации на pirat.ca и получить 1000 дублонов.

Ваш код:
fe4e93b754a7c2b306fcfc8bc32532ea1cf59d3b
 
     

Мегамозг / Megamind (Том МакГрат / Tom McGrath) [2010 г., мультфильм, фантастика, боевик, комедия, семейный, HDRip-AVC] (Dub)

Ответить на тему
 
Автор
Сообщение

Пост 15-Ноя-2011 10:16

[Q] 

zyyx

--Мегамозг / Megamind
«It's big for a reason.»
-- Год выпуска: 2010
Мировая премьера: 28 октября 2010
Российская премьера: 28 октября 2010, «Централ Партнершип»
Дата выхода DVD: 19 апреля 2011, «Юниверсал Пикчерс Рус»
Производство: США
Жанр: мультфильм, фантастика, боевик, комедия, семейный
Продолжительность: 01:35:34
Перевод: Профессиональный (полное дублирование) [Лицензия]
Оригинальный аудиопоток: Английский
Режиссер: Том МакГрат / Tom McGrath
В ролях: Уилл Феррелл, Тина Фей, Джона Хилл, Дэвид Кросс, Брэд Питт, Дж.К. Симмонс, Бен Стиллер, Джастин Теру, Джессика Шульте, Том МакГрат
Описание: Мегамозг — самый гениальный и самый неудачливый злодей в мире. Вот уже много лет он пытается покорить Метро-Сити самыми разнообразными способами. Но каждая такая попытка кончается провалом по вине супергероя по имени Метро-Мэн. Но злодей убивает супергероя, и внезапно Мегамозг лишается цели в жизни. Суперзлодей без супергероя.
Единственный выход — создать нового супергероя, которого он называет Титаном. Но Титан решает, что быть злодеем куда интереснее. Вот только ему не хочется править миром, он желает его уничтожить. Мегамозгу предстоит непростой выбор. Сможет ли злой гений стать героем — спасителем человечества.-Сэмпл | IMDB | КиноПоиск-Источник/Качество: HDRip-AVC
Формат: MKV
Видео кодек: H.26x
Аудио кодек: AC3
Видео: 960x408, 23,976 fps, 1794 kb/s
Аудио: AC3 Dolby Digital; 48 KHz; 384 kb/s; 3/2 (L,C,R,l,r) + LFE ch
Аудио #2: AC3 Dolby Digital; 48 KHz; 384 kb/s; 3/2 (L,C,R,l,r) + LFE ch, ENG /отдельным файлом/
Формат субтитров: softsub (SRT)
Общее
Полное имя : F:\pirat.ca\Megamozg.2010.Dub.HDRip.x264_Vaippp\Megamozg.2010.Dub.HDRip.x264_Vaippp.ENG.ac3
Формат : AC-3
Формат/Информация : Audio Coding 3
Размер файла : 263 Мбайт
Продолжительность : 1 ч. 35 м.
Режим общего битрейта : Постоянный
Общий поток : 384 Кбит/сек
Аудио
Формат : AC-3
Формат/Информация : Audio Coding 3
Расширение режима : CM (complete main)
Продолжительность : 1 ч. 35 м.
Вид битрейта : Постоянный
Битрейт : 384 Кбит/сек
Каналы : 6 каналов
Расположение каналов : Front: L C R, Side: L R, LFE
Частота : 48,0 КГц
Битовая глубина : 16 бит
Метод сжатия : С потерями
Размер потока : 263 Мбайт (100%)
Общее
Уникальный идентификатор : 176918063730442543822645651750152633892 (0x85192DFE78330D468B03E9DE8AECFE24)
Полное имя : F:\pirat.ca\Megamozg.2010.Dub.HDRip.x264_Vaippp\Megamozg.2010.Dub.HDRip.x264_Vaippp.mkv
Формат : Matroska
Версия формата : Version 2
Размер файла : 1,45 Гбайт
Продолжительность : 1 ч. 35 м.
Общий поток : 2179 Кбит/сек
Название фильма : Megamind / 2010 / Release by Vaippp / OpenSharing Team
Дата кодирования : UTC 2011-04-16 14:12:51
Программа кодирования : mkvmerge v4.6.0 ('Still Crazy After All These Years') сборка от Mar 10 2011 02:50:32
Библиотека кодирования : libebml v1.2.0 + libmatroska v1.1.0
Видео
Идентификатор : 1
Формат : AVC
Формат/Информация : Advanced Video Codec
Профиль формата : [email protected]
Параметр CABAC формата : Да
Параметр ReFrames формата : 9 кадров
Идентификатор кодека : V_MPEG4/ISO/AVC
Продолжительность : 1 ч. 35 м.
Битрейт : 1794 Кбит/сек
Ширина : 960 пикселей
Высота : 408 пикселей
Соотношение сторон : 2,35:1
Частота кадров : 23,976 кадра/сек
Цветовое пространство : YUV
Субдискретизация насыщенности : 4:2:0
Битовая глубина : 8 бит
Тип развёртки : Прогрессивная
Бит/(Пиксели*Кадры) : 0.191
Размер потока : 1,17 Гбайт (80%)
Заголовок : HDRip by Vaippp
Библиотека кодирования : x264 core 112 r1867 22bfd31
Настройки программы : cabac=1 / ref=9 / deblock=1:-1:-1 / analyse=0x3:0x113 / me=umh / subme=9 / psy=1 / psy_rd=0.80:0.00 / mixed_ref=1 / me_range=32 / chroma_me=1 / trellis=1 / 8x8dct=1 / cqm=0 / deadzone=21,11 / fast_pskip=0 / chroma_qp_offset=-2 / threads=4 / sliced_threads=0 / nr=0 / decimate=1 / interlaced=0 / constrained_intra=0 / bframes=8 / b_pyramid=2 / b_adapt=2 / b_bias=0 / direct=3 / weightb=1 / open_gop=0 / weightp=2 / keyint=250 / keyint_min=23 / scenecut=40 / intra_refresh=0 / rc_lookahead=60 / rc=2pass / mbtree=1 / bitrate=1794 / ratetol=1.0 / qcomp=0.60 / qpmin=10 / qpmax=51 / qpstep=4 / cplxblur=20.0 / qblur=0.5 / ip_ratio=1.40 / aq=1:0.60 / zones=123716,137494,q=37
Язык : English
Аудио
Идентификатор : 2
Формат : AC-3
Формат/Информация : Audio Coding 3
Расширение режима : CM (complete main)
Идентификатор кодека : A_AC3
Продолжительность : 1 ч. 35 м.
Вид битрейта : Постоянный
Битрейт : 384 Кбит/сек
Каналы : 6 каналов
Расположение каналов : Front: L C R, Side: L R, LFE
Частота : 48,0 КГц
Битовая глубина : 16 бит
Метод сжатия : С потерями
Размер потока : 263 Мбайт (18%)
Заголовок : Dub
Язык : Russian
Текст #1
Идентификатор : 3
Формат : UTF-8
Идентификатор кодека : S_TEXT/UTF8
Идентификатор кодека/Информация : UTF-8 Plain Text
Заголовок : Forced
Язык : Russian
Текст #2
Идентификатор : 4
Формат : UTF-8
Идентификатор кодека : S_TEXT/UTF8
Идентификатор кодека/Информация : UTF-8 Plain Text
Заголовок : Full
Язык : Russian
Текст #3
Идентификатор : 5
Формат : UTF-8
Идентификатор кодека : S_TEXT/UTF8
Идентификатор кодека/Информация : UTF-8 Plain Text
Заголовок : Full
Язык : English



Download / Скачать

Хотите скачать бесплатно? Зарегистрируйтесь на сайте (ссылка на регистрацию). Pirat.ca - самый быстрый торрент трекер в рунете!

Как скачивать  ·   Что такое торрент  ·   Рейтинг и ограничения

Пост 15-Ноя-2011 23:52 (спустя 13 часов)

Топик был перенесен из форума Мультипликация в форум Новинки (HD|DVD|BD|TV|SAT|PDTV| - Rips)

Sirota
 

Пост 23-Янв-2012 13:33 (спустя 2 месяца 8 дней)

Топик был перенесен из форума Новинки (HD|DVD|BD|TV|SAT|PDTV| - Rips) в форум Зарубежные полнометражные мультфильмы

Skinwalker
 

$МАКС$

Штурман

Пост 22-Май-2012 15:18 (спустя 6 месяцев 7 дней)

[Q] 

спасибо
[Профиль]  [ЛС] 

Элизиотта

Морской Волк

329

Пост 07-Окт-2012 12:24 (спустя 4 месяца 15 дней)

[Q] 

Какой-то незлодейский злодей) Хороший мультик, смотрите
[Профиль]  [ЛС] 

mitiko

Штурман

Пост 04-Янв-2013 13:28 (спустя 2 месяца 28 дней)

[Q] 

Спасибо! Мультик отличный, нечаянно удалил, теперь приходится ребенку по второму разу качать!
[Профиль]  [ЛС] 

Дудинский

Шкипер

Пост 17-Янв-2013 12:25 (спустя 12 дней)

[Q] 

[Профиль]  [ЛС] 

Aza73

Морской Волк

Пост 27-Янв-2013 12:53 (спустя 10 дней)

[Q] 

Супер, всем смотреть!!!!
[Профиль]  [ЛС] 

kennyiiii

Морской Волк

Пост 28-Май-2013 19:22 (спустя 4 месяца 1 день)

[Q] 

посмотрим
[Профиль]  [ЛС] 

maksssi

Корсар

Пост 18-Авг-2013 16:10 (спустя 2 месяца 20 дней)

[Q] 

Клёвый мульт Супер!
[Профиль]  [ЛС] 

днепрянен

Морской Волк

Пост 23-Ноя-2013 22:57 (спустя 3 месяца 5 дней)

[Q] 

Ну, впринцыпи, можна посмотреть... добрый мульт.
[Профиль]  [ЛС] 

RoMaZz

Штурман

Пост 26-Ноя-2014 10:52 (спустя 1 год)

[Q] 

Любимый мультфильм, спасибо за раздачу)
Лови бочку
[Профиль]  [ЛС] 
Показать сообщения:    
Ответить на тему

Текущее время: Сегодня 14:27

Часовой пояс: GMT + 4



Вы не можете начинать темы
Вы не можете отвечать на сообщения
Вы не можете редактировать свои сообщения
Вы не можете удалять свои сообщения
Вы не можете голосовать в опросах
Вы не можете прикреплять файлы к сообщениям
Вы не можете скачивать файлы

▼ Вниз