ML
     
  Уважаемый Гость!
Вы можете поддержать проект и зарегистрироваться у наших партнеров - онлайн-стратегия MyLands. При регистрации в игре Вы получите код, который сможете активировать после регистрации на pirat.ca и получить 1000 дублонов.

Ваш код:
ba41f7961e0b4717aed6a401d955262223b8f6c4
 
     

Принцесса-лебедь 3: Тайна заколдованного сокровища / The Swan Princess and the Mystery of the Enchanted (Ричард Рич / Richard Rich) [1998 г.] (фэнтези, сказка, детектив, семейный) [DVDRip] (Dub)

Ответить на тему
 
Автор
Сообщение

Пост 15-Ноя-2011 13:19

[Q] 

Creed72

Принцесса-лебедь 3: Тайна заколдованного сокровища / The Swan Princess and the Mystery of the Enchanted- Год выпуска: 1998
Мировая премьера: 4 августа 1998
Производство: США
Жанр: фэнтези, сказка, детектив, семейный
Продолжительность: 01:09:38
Перевод: Профессиональный (полное дублирование)
Режиссер: Ричард Рич / Richard Rich
В ролях: Мишель Никастро
Брайан Ниссен
Katja Zoch
Джозеф Медрано
Кристи Лэндерс
Дональд Сэйдж Маккэй
Даг Стоун
Стив Винович
Paul Masonson
Оуэн Миллер
Описание: Жители королевства с нетерпением ждут ежегодного праздника, на котором каждый может попытать счастья в различных конкурсах, состязаниях и выиграть первый приз. Принц Дерек и принцесса Одетт заканчивают последние приготовления к грандиозному торжеству.
Но среди гостей не все настроены веселиться. Коварная Зельда приехала на праздник, чтобы завладеть тайной формулой запретного колдовства, спрятанной в недрах Замка. Для этого она похищает Одетт, и принц Дерек со своими давними друзьями снова отправляется в опасное и увлекательное путешествие…
сценарий Брайан Ниссен, Ричард Рич
продюсер Ричард Рич, Джаред Ф. Браун, Селдон Янг,
композитор Лекс Де Азеведо
монтаж Пол Мерфи
Источник/Качество: DVDRip
Формат: AVI
Видео кодек: XviD
Аудио кодек: AC3
Видео: 640x352 (1.82:1), 25 fps, XviD MPEG-4 ~1295 kbps avg, 0.23 bit/pixel
Аудио: 48 kHz, AC3 Dolby Digital, 2/0 (L,R) ch, ~192.00 kbps avg
Субтитры: нет
General
Format : AVI
Format/Info : Audio Video Interleave
File size : 746 MiB
Duration : 1h 9mn
Overall bit rate : 1 497 Kbps
Writing application : VirtualDubMod 1.5.10.2 (build 2540/release)
Writing library : VirtualDubMod build 2540/release
Video #0
ID : 0
Format : MPEG-4 Visual
Format profile : [email protected]
Format settings, BVOP : Yes
Format settings, QPel : No
Format settings, GMC : No warppoints
Format settings, Matrix : Default (H.263)
Muxing mode : Packed bitstream
Codec ID : XVID
Codec ID/Hint : XviD
Duration : 1h 9mn
Bit rate : 1 296 Kbps
Width : 640 pixels
Height : 352 pixels
Display aspect ratio : 16:9
Frame rate : 25.000 fps
Resolution : 24 bits
Colorimetry : 4:2:0
Scan type : Progressive
Bits/(Pixel*Frame) : 0.230
Stream size : 646 MiB (87%)
Writing library : XviD 1.2.1 (UTC 2008-12-04)
Audio #1
ID : 1
Format : AC-3
Format/Info : Audio Coding 3
Codec ID : 2000
Duration : 1h 9mn
Bit rate mode : Constant
Bit rate : 192 Kbps
Channel(s) : 2 channels
Channel positions : L R
Sampling rate : 48.0 KHz
Stream size : 95.6 MiB (13%)
Alignment : Split accross interleaves
Interleave, duration : 40 ms (1.00 video frame)
Interleave, preload duration : 500 ms
Раздача обновлена администрацией
Download / Скачать

Хотите скачать бесплатно? Зарегистрируйтесь на сайте (ссылка на регистрацию). Pirat.ca - самый быстрый торрент трекер в рунете!

Как скачивать  ·   Что такое торрент  ·   Рейтинг и ограничения



Последний раз редактировалось: Creed72 (2012-06-27 04:26), всего редактировалось 1 раз

Пост 28-Июн-2012 17:51 (спустя 7 месяцев 13 дней)

Топик был перенесен из форума Подвал (для восстановления раздач) в форум Зарубежные полнометражные мультфильмы

erchine
 

Voland57

Корсар

Пост 28-Ноя-2013 10:51 (спустя 2 года)

[Q] 

Дайте скачать!!!
[Профиль]  [ЛС] 
Показать сообщения:    
Ответить на тему

Текущее время: Сегодня 14:49

Часовой пояс: GMT + 4



Вы не можете начинать темы
Вы не можете отвечать на сообщения
Вы не можете редактировать свои сообщения
Вы не можете удалять свои сообщения
Вы не можете голосовать в опросах
Вы не можете прикреплять файлы к сообщениям
Вы не можете скачивать файлы

▼ Вниз