ML
     
  Уважаемый Гость!
Вы можете поддержать проект и зарегистрироваться у наших партнеров - онлайн-стратегия MyLands. При регистрации в игре Вы получите код, который сможете активировать после регистрации на pirat.ca и получить 1000 дублонов.

Ваш код:
e93cd9e43017f251127f220889864c05934e61c6
 
     

Сверхновый Супермен / All-Star Superman (Сэм Лью / Sam Liu) [2011 г., Мультфильм, Фантастика, Боевик, BDRip] (MVO)

Ответить на тему
 
Автор
Сообщение

Пост 16-Ноя-2011 04:24

[Q] 

Ksandr

Флибустьер

Сверхновый Супермен / All-Star Superman
Год выпуска: 2011
Мировая премьера: 22 февраля 2011
Производство: США
Жанр: Мультфильм, Фантастика, Боевик
Продолжительность: 01:16:36
Перевод: Любительский (многоголосый, закадровый) Kapets's studios
Режиссер: Сэм Лью / Sam Liu
В ролях: Джеймс Дентон, Кристина Хендрикс, Энтони ЛаПалья, Эдвард Эснер, Обба Бабатунде, Стивен Блум, Линда Карделлини, Кэти Кавадини, Фрэнсис Конрой, Крис Кокс
Описание: Лекс Лютор приговорен к казни. Но злодей успел взломать генетический код Супермена и подвергнуть Человека из Стали смертельной дозой солнечной радиации. Супермен обречен. В оставшиеся дни он решает открыть Лоис Лейн свое истинное лицо и противостоять последним козням астрономического масштаба. Погибнет ли Супермен или возродится подобно сверхновой звезде?
Источник/Качество: BDRip
Формат: AVI
Видео кодек: XviD
Аудио кодек: MP3
Видео: 704x400, ~1868 kbps, 23,976 fps
Аудио: 2ch, 128 kbps, 48,0 КГц
Видео
Идентификатор : 0
Формат : MPEG-4 Visual
Профиль формата : Advanced [email protected]
Параметр BVOP формата : 1
Параметр QPel формата : Нет
Параметр GMC формата : Без точки перехода
Параметр матрицы формата : Выборочная
Идентификатор кодека : XVID
Идентификатор кодека/Подсказка : XviD
Продолжительность : 1 ч. 16 м.
Битрейт : 1868 Кбит/сек
Ширина : 704 пикселя
Высота : 400 пикселей
Соотношение сторон : 16:9
Частота кадров : 23,976 кадра/сек
Цветовое пространство : YUV
Субдискретизация насыщенности : 4:2:0
Битовая глубина : 8 бит
Тип развёртки : Прогрессивная
Метод сжатия : С потерями
Бит/(Пиксели*Кадры) : 0.277
Размер потока : 1024 Мбайт (93%)
Библиотека кодирования : XviD 64
Аудио
Идентификатор : 1
Формат : MPEG Audio
Версия формата : Version 1
Профиль формата : Layer 3
Режим : Joint stereo
Расширение режима : MS Stereo
Идентификатор кодека : 55
Идентификатор кодека/Подсказка : MP3
Продолжительность : 1 ч. 16 м.
Вид битрейта : Постоянный
Битрейт : 128 Кбит/сек
Каналы : 2 канала
Частота : 48,0 КГц
Метод сжатия : С потерями
Размер потока : 70,1 Мбайт (6%)
Выравнивание : Разделение по промежуткам
Продолжительность промежутка : 42 мс. (1,00 видеокадр)
Время предзагрузки промежутка : 500 мс.
Библиотека кодирования : LAME3.98.2


Download / Скачать

Хотите скачать бесплатно? Зарегистрируйтесь на сайте (ссылка на регистрацию). Pirat.ca - самый быстрый торрент трекер в рунете!

Как скачивать  ·   Что такое торрент  ·   Рейтинг и ограничения

Пост 16-Ноя-2011 05:36 (спустя 1 час 12 минут)

Топик был перенесен из форума Мультипликация в форум Зарубежные полнометражные мультфильмы

CaptRom
 

Wankin

Морской Волк

Пост 16-Янв-2012 01:19 (спустя 1 месяц 29 дней)

[Q] 

ОО спасибо! помогу с раздачей,давно искал;-)
[Профиль]  [ЛС] 

Frostdecoy

Морской Волк

Пост 16-Июл-2012 04:48 (спустя 6 месяцев)

[Q] 

Сидер ты где :(
[Профиль]  [ЛС] 

CHARLI2236

1089

Пост 28-Окт-2012 22:11 (спустя 3 месяца 12 дней)

[Q] 

спс

_________________
[Профиль]  [ЛС] 
Показать сообщения:    
Ответить на тему

Текущее время: Сегодня 04:28

Часовой пояс: GMT + 4



Вы не можете начинать темы
Вы не можете отвечать на сообщения
Вы не можете редактировать свои сообщения
Вы не можете удалять свои сообщения
Вы не можете голосовать в опросах
Вы не можете прикреплять файлы к сообщениям
Вы не можете скачивать файлы

▼ Вниз