ML
     
  Уважаемый Гость!
Вы можете поддержать проект и зарегистрироваться у наших партнеров - онлайн-стратегия MyLands. При регистрации в игре Вы получите код, который сможете активировать после регистрации на pirat.ca и получить 1000 дублонов.

Ваш код:
b70663c760e7cd2521b8e123786cdd788200e3bd
 
     

Супермен/Бэтмен: Враги общества / Superman/Batman: Public Enemies (Сэм Лью / Sam Liu) [2009 г., Мультфильм, Фантастика, Боевик, Приключения, HDRip] (DVO)

Ответить на тему
 
Автор
Сообщение

Пост 16-Ноя-2011 04:54

[Q] 

Ksandr

Флибустьер

Супермен/Бэтмен: Враги общества / Superman/Batman: Public Enemies
Год выпуска: 2009
Мировая премьера: 29 сентября 2009
Производство: США
Жанр: Мультфильм, Фантастика, Боевик, Приключения
Продолжительность: 01:07:02
Перевод: Профессиональный (двухголосый закадровый)
Режиссер: Сэм Лью / Sam Liu
В ролях: Клэнси Браун, Кевин Конрой, Тим Дейли, Ксандер Беркли, Кори Бертон, Рикардо Чавира, Эллисон Мэк, Джон К. МакГинли, Си Си Эйч Паундер, ЛеВар Бёртон
Описание: Президент США Лекс Лутор хочет использовать надвигающиеся Криптонитовые астероиды чтобы победить Супермена. Ради этого он назначает награду в миллиард долларов за головы Супермена и его «сообщника в преступлениях» Бэтмена. Теперь героям предстоит предотвратить коварные планы Лутора, остановить астероиды и докопаться до правды.
Источник/Качество: HDRip
Формат: AVI
Видео кодек: XviD
Аудио кодек: MP3
Видео: 688x384, ~1419 kbps, 23,976 fps
Аудио: 2ch, 128 kbps, 48,0 КГц
Общее
Полное имя : SupermanBatman Public Enemies[pirat.ca].avi
Формат : AVI
Формат/Информация : Audio Video Interleave
Размер файла : 746 Мбайт
Продолжительность : 1 ч. 7 м.
Общий поток : 1556 Кбит/сек
Программа кодирования : VirtualDubMod 1.5.10.2 (build 2540/release)
Библиотека кодирования : VirtualDubMod build 2540/release
Видео
Идентификатор : 0
Формат : MPEG-4 Visual
Профиль формата : Advanced [email protected]
Параметр BVOP формата : 1
Параметр QPel формата : Нет
Параметр GMC формата : Без точки перехода
Параметр матрицы формата : Default (MPEG)
Идентификатор кодека : XVID
Идентификатор кодека/Подсказка : XviD
Продолжительность : 1 ч. 7 м.
Битрейт : 1419 Кбит/сек
Ширина : 688 пикселей
Высота : 384 пикселя
Соотношение сторон : 16:9
Частота кадров : 23,976 кадра/сек
Цветовое пространство : YUV
Субдискретизация насыщенности : 4:2:0
Битовая глубина : 8 бит
Тип развёртки : Прогрессивная
Метод сжатия : С потерями
Бит/(Пиксели*Кадры) : 0.224
Размер потока : 680 Мбайт (91%)
Библиотека кодирования : XviD 1.2.1 (UTC 2008-12-04)
Аудио
Идентификатор : 1
Формат : MPEG Audio
Версия формата : Version 1
Профиль формата : Layer 3
Идентификатор кодека : 55
Идентификатор кодека/Подсказка : MP3
Продолжительность : 1 ч. 7 м.
Вид битрейта : Постоянный
Битрейт : 128 Кбит/сек
Каналы : 2 канала
Частота : 48,0 КГц
Метод сжатия : С потерями
Размер потока : 61,3 Мбайт (8%)
Выравнивание : Соединение по промежуткам
Продолжительность промежутка : 42 мс. (1,00 видеокадр)
Время предзагрузки промежутка : 504 мс.
Библиотека кодирования : LAME3.98r
Настройки программы : -m s -V 4 -q 2 -lowpass 17 -b 128


Download / Скачать

Хотите скачать бесплатно? Зарегистрируйтесь на сайте (ссылка на регистрацию). Pirat.ca - самый быстрый торрент трекер в рунете!

Как скачивать  ·   Что такое торрент  ·   Рейтинг и ограничения

Пост 16-Ноя-2011 05:34 (спустя 39 минут)

Топик был перенесен из форума Мультипликация в форум Зарубежные полнометражные мультфильмы

CaptRom
 

KonanVarvar

Морской Волк

Пост 26-Ноя-2011 13:19 (спустя 10 дней)

[Q] 

не качает!!!!!!!!!!!! где сиди???????????
[Профиль]  [ЛС] 

Wankin

Морской Волк

Пост 16-Янв-2012 01:19 (спустя 1 месяц 19 дней)

[Q] 

Спасибо!
[Профиль]  [ЛС] 

Wankin

Морской Волк

Пост 16-Янв-2012 01:21 (спустя 1 минута)

[Q] 

Сиды? ау, раздавать будем?
[Профиль]  [ЛС] 
Показать сообщения:    
Ответить на тему

Текущее время: Сегодня 00:21

Часовой пояс: GMT + 4



Вы не можете начинать темы
Вы не можете отвечать на сообщения
Вы не можете редактировать свои сообщения
Вы не можете удалять свои сообщения
Вы не можете голосовать в опросах
Вы не можете прикреплять файлы к сообщениям
Вы не можете скачивать файлы

▼ Вниз