ML
     
  Уважаемый Гость!
Вы можете поддержать проект и зарегистрироваться у наших партнеров - онлайн-стратегия MyLands. При регистрации в игре Вы получите код, который сможете активировать после регистрации на pirat.ca и получить 1000 дублонов.

Ваш код:
4fbd9898b6f10799a3e8edf60f31febd2bc15453
 
     

Новая история Белоснежки / Happily N'Ever After 2 (Стивен Е. Гордон, Бойд Керклэнд / Steven E. Gordon,Boyd Kirkland) [2009 г., приключения, сказка, семейный, DVDRip] (MVO)

Ответить на тему
 
Автор
Сообщение

Пост 19-Ноя-2011 15:02

[Q] 

Sirota

Легенда

Новая история Белоснежки / Happily N'Ever After 2 Год выпуска: 2009
Мировая премьера: 24 марта 2009
Дата выхода DVD: 5 ноября 2009, «New Dream media»
Производство: США, BAF Berlin Animation Film, Kickstart Productions
Жанр: приключения, сказка, семейный
Продолжительность: 01:08:47
Перевод: профессиональный (многоголосый, закадровый)
Оригинальный аудиопоток: Английский
Режиссер: Стивен Е. Гордон, Бойд Керклэнд / Steven E. Gordon,Boyd Kirkland
В ролях: Гилберт Боуc
Келли Брюэр
Келли Брюстер
Даг Эрхольц
Дженни Фан
Дэвид Лодж
Helen Niedwick
Синди Робинсон
Джим Салливан
Кирк Торнтон
Описание: Нас ждет встреча с Красной Шапочкой, Белоснежкой, Златовлаской, Шалтаем-Болтаем, Семью Гномами, Злой мачехой и многими-многими другими. Знакомые с детства герои сказок предстанут перед нами совсем в другом облике и кто знает, чем на сей раз закончится эта казалось бы знакомая история.
Доп. информация: сценарий Крис Денк
продюсер Лорис Крамер, Джейсон Неттер, Сьюзэн Норкин
композитор Пол Баккли
IMDB, КиноПоиск
Источник/Качество: DVDRip
Формат: AVI
Видео кодек: XviD
Аудио кодек: AC3
Видео: 720x400 (1.80:1), 25 fps, XviD build 50 ~1926 kbps avg, 0.27 bit/pixel
Аудио: Rus 48 kHz, AC3 Dolby Digital, 3/2 (L,C,R,l,r) + LFE ch, ~448.00 kbps avg
Аудио #2: Eng 48 kHz, AC3 Dolby Digital, 3/2 (L,C,R,l,r) + LFE ch, ~448.00 kbps avg
Субтитры: нет
General
Format : AVI
Format/Info : Audio Video Interleave
File size : 1.36 GiB
Duration : 1h 8mn
Overall bit rate : 2 838 Kbps
Movie name : Happily N'Ever After 2 (2009)
Writing application : VirtualDubMod 1.5.4.1 (build 2178/release)
Copyright : http://uniongang.ru/
Video #0
ID : 0
Format : MPEG-4 Visual
Format profile : [email protected]
Format settings, BVOP : Yes
Format settings, QPel : No
Format settings, GMC : No warppoints
Format settings, Matrix : Custom
Codec ID : XVID
Codec ID/Hint : XviD
Duration : 1h 8mn
Bit rate : 1 928 Kbps
Width : 720 pixels
Height : 400 pixels
Display aspect ratio : 16:9
Frame rate : 25.000 fps
Resolution : 24 bits
Colorimetry : 4:2:0
Scan type : Progressive
Bits/(Pixel*Frame) : 0.268
Stream size : 948 MiB (68%)
Writing library : XviD 1.2.1 (UTC 2008-12-04)
Audio #1
ID : 1
Format : AC-3
Format/Info : Audio Coding 3
Codec ID : 2000
Duration : 1h 8mn
Bit rate mode : Constant
Bit rate : 448 Kbps
Channel(s) : 6 channels
Channel positions : Front: L C R, Surround: L R, LFE
Sampling rate : 48.0 KHz
Stream size : 220 MiB (16%)
Alignment : Aligned on interleaves
Interleave, duration : 40 ms (1.00 video frame)
Interleave, preload duration : 512 ms
Audio #2
ID : 2
Format : AC-3
Format/Info : Audio Coding 3
Codec ID : 2000
Duration : 1h 8mn
Bit rate mode : Constant
Bit rate : 448 Kbps
Channel(s) : 6 channels
Channel positions : Front: L C R, Surround: L R, LFE
Sampling rate : 48.0 KHz
Stream size : 220 MiB (16%)
Alignment : Split accross interleaves
Interleave, duration : 40 ms (1.00 video frame)
Interleave, preload duration : 500 ms







Download / Скачать

Хотите скачать бесплатно? Зарегистрируйтесь на сайте (ссылка на регистрацию). Pirat.ca - самый быстрый торрент трекер в рунете!

Как скачивать  ·   Что такое торрент  ·   Рейтинг и ограничения

Пост 19-Ноя-2011 15:05 (спустя 2 минуты)

Топик был перенесен из форума Мультипликация в форум Зарубежные полнометражные мультфильмы

zyyx
 

CHARLI2236

1092

Пост 30-Окт-2012 13:20 (спустя 11 месяцев 10 дней)

[Q] 

спс

_________________
[Профиль]  [ЛС] 

Voland57

Корсар

Пост 28-Ноя-2013 17:52 (спустя 1 год)

[Q] 

Дайти скачать!
[Профиль]  [ЛС] 

shalonina

Гроза морей

Пост 26-Авг-2014 16:49 (спустя 8 месяцев 27 дней)

[Q] 

помогу с раздачей..............................................................

_________________
[Профиль]  [ЛС] 
Показать сообщения:    
Ответить на тему

Текущее время: Сегодня 19:56

Часовой пояс: GMT + 4



Вы не можете начинать темы
Вы не можете отвечать на сообщения
Вы не можете редактировать свои сообщения
Вы не можете удалять свои сообщения
Вы не можете голосовать в опросах
Вы не можете прикреплять файлы к сообщениям
Вы не можете скачивать файлы

▼ Вниз