ML
     
  Уважаемый Гость!
Вы можете поддержать проект и зарегистрироваться у наших партнеров - онлайн-стратегия MyLands. При регистрации в игре Вы получите код, который сможете активировать после регистрации на pirat.ca и получить 1000 дублонов.

Ваш код:
34514219cfad5497a1822ecc1269bea77988f9aa
 
     

Принцесса на горошине / The Princess and the Pea (Марк Свон / Mark Swan) [2002 г., фэнтези, приключения, сказка, семейный, DVDRip] (MVO)

Ответить на тему
 
Автор
Сообщение

Пост 19-Ноя-2011 15:35

[Q] 

Sirota

Легенда

Принцесса на горошине / The Princess and the Pea Год выпуска: 2002
Мировая премьера: 16 августа 2002
Дата выхода DVD: 16 декабря 2010, «Союз-Видео»
Производство: США
Жанр: фэнтези, приключения, сказка, семейный
Продолжительность: 01:25:43
Перевод: профессиональный (многоголосый, закадровый)
Режиссер: Марк Свон / Mark Swan
В ролях: Дэн Финнерти
Джонатан Фёрт
Линкольн Хопп
Ève Karpf
Найджел Ламберт
Ронан Вайберт
Amanda Waving
Стивен Уэбб
Алекс Герриш
Фрэнк Герриш
Описание: Великолепный красочный полнометражный мультфильм по мотивам одной из самых известных сказок Ганса-Христиана Андерсена, выполненный в классическом стиле Уолта Диснея.
Принц Ролло странствует по дальним королевствам в поисках принцессы своей мечты. Он объехал множество земель, знакомился с разными принцессами, но ни одна не приглянулась ему. Уже отчаявшись, Ролло встречает пастушку. И эта девушка становится ему милее всех на свете, благодаря кроткому нраву и доброму сердцу. Так принц обрёл своё счастье. Тем временем старый мудрый ворон Себастьян, друг Ролло, старается разгадать тайну горошины. Согласно легенде, только так, при помощи 20 пуховых перин и маленькой горошинки можно разоблачить коварные планы Лаирда, злого и жадного брата короля, решившего воспользоваться отсутствием Ролло и погубить королевство Коразион.
Доп. информация: сценарий Форрест С. Бэйкер III, Ken Cromar, Рэй Голдрап,
продюсер Дон А. Джудд, Форрест С. Бэйкер III, Kelly Loosli,
композитор Алан Уильямс
IMDB, КиноПоиск
Источник/Качество: DVDRip
Формат: AVI
Видео кодек: DivX
Аудио кодек: AC3
Видео: 720x416 (1.73:1), 25 fps, DivX Codec 5.x or 6.x ~2083 kbps avg, 0.28 bit/pixel
Аудио: 48 kHz, AC3 Dolby Digital, 2/0 (L,R) ch, ~192.00 kbps avg
Субтитры: нет
General
Format : AVI
Format/Info : Audio Video Interleave
File size : 1.37 GiB
Duration : 1h 25mn
Overall bit rate : 2 282 Kbps
Writing application : VirtualDubMod 1.5.4.1 (build 2178/release)
Writing library : VirtualDubMod build 2178/release
Video #0
ID : 0
Format : MPEG-4 Visual
Format settings, BVOP : Yes
Format settings, QPel : No
Format settings, GMC : No warppoints
Format settings, Matrix : Default (H.263)
Muxing mode : Packed bitstream
Codec ID : DX50
Codec ID/Hint : DivX 5
Duration : 1h 25mn
Bit rate : 2 083 Kbps
Width : 720 pixels
Height : 416 pixels
Display aspect ratio : 16:9
Frame rate : 25.000 fps
Resolution : 24 bits
Colorimetry : 4:2:0
Scan type : Progressive
Bits/(Pixel*Frame) : 0.278
Stream size : 1.25 GiB (91%)
Writing library : DivX 6.5.1 (UTC 2007-03)
Audio #1
ID : 1
Format : AC-3
Format/Info : Audio Coding 3
Codec ID : 2000
Duration : 1h 25mn
Bit rate mode : Constant
Bit rate : 192 Kbps
Channel(s) : 2 channels
Channel positions : L R
Sampling rate : 48.0 KHz
Stream size : 118 MiB (8%)
Alignment : Split accross interleaves
Interleave, duration : 96 ms (2.40 video frames)
Interleave, preload duration : 96 ms
Language : Russian







Download / Скачать

Хотите скачать бесплатно? Зарегистрируйтесь на сайте (ссылка на регистрацию). Pirat.ca - самый быстрый торрент трекер в рунете!

Как скачивать  ·   Что такое торрент  ·   Рейтинг и ограничения

Пост 19-Ноя-2011 15:48 (спустя 13 минут)

Топик был перенесен из форума Мультипликация в форум Зарубежные полнометражные мультфильмы

zyyx
 

VlaStep

Лоцман

Пост 19-Ноя-2011 18:42 (спустя 3 часа)

[Q] 

Интересно, в своё время он как-то мимо меня прошел. Ну что же, посмотрим сейчас.
[Профиль]  [ЛС] 

CHARLI2236

1089

Пост 30-Окт-2012 13:27 (спустя 11 месяцев 10 дней)

[Q] 

благодарю

_________________
[Профиль]  [ЛС] 
Показать сообщения:    
Ответить на тему

Текущее время: Сегодня 07:50

Часовой пояс: GMT + 4



Вы не можете начинать темы
Вы не можете отвечать на сообщения
Вы не можете редактировать свои сообщения
Вы не можете удалять свои сообщения
Вы не можете голосовать в опросах
Вы не можете прикреплять файлы к сообщениям
Вы не можете скачивать файлы

▼ Вниз