ML
     
  Уважаемый Гость!
Вы можете поддержать проект и зарегистрироваться у наших партнеров - онлайн-стратегия MyLands. При регистрации в игре Вы получите код, который сможете активировать после регистрации на pirat.ca и получить 1000 дублонов.

Ваш код:
a261790f23fb05d13d060bdee9cb70d1451a6d3d
 
     

Чёрный котёл / The Black Cauldron (Тед Берман / Ted Berman, Ричард Рич / Richard Rich) [1985 г., фэнтези, детектив, приключения, семейный, DVDRip] (Dub)

Ответить на тему
 
Автор
Сообщение

Пост 19-Ноя-2011 16:14

[Q] 

Sirota

Легенда

Чёрный котёл / The Black Cauldron Год выпуска: 1985
Мировая премьера: 24 июля 1985
Дата выхода DVD: 18 марта 2010, «Уолт Дисней Компани СНГ»
Производство: США
Жанр: фэнтези, детектив, приключения, семейный
Продолжительность: 01:16:48
Перевод: профессиональный (полное дублирование)
Оригинальный аудиопоток: Английский
Автор(ы) перевода: Александр Костричкин, Анна Штукатурова, Виктор Петров, Никита Прозоровский, Сергей Чихачев
Режиссер: Тед Берман / Ted Berman, Ричард Рич / Richard Rich
В ролях: Грант Бардсли
Сьюзэн Шеридан
Фредди Джонс
Найджел Хоторн
Артур Мэлет
Джон Байнер
Линдсэй Рич
Брэндон Колл
Грегори Левинсон
Эда Рейсс Мерин
Описание: Главный герой — Таран, мальчик-свинопас, мечтающий стать великим воином и защитником родного Придейна. Его антагонист — злой и могущественный Рогатый король, вознамерившийся завладеть Чёрным котлом и с помощью заключённой в нём силы воскресить армию нежити и покорить мир. Однако найти Чёрный котёл — непростая задача. Его местонахождение может указать волшебная свинка Хен Вен, живущая у старого волшебника Даллбена. Узнав о намерениях Рогатого короля, Даллбен поручает Тарану отвести свинку в надёжное место. По дороге Таран теряет Хен Вен, и начинаются его приключения.
Доп. информация: сценарий Розмари Энн Сиссон, Рой Эдвард Дисней, Ллойд Александр,
продюсер Джо Хейл, Рон Миллер
композитор Элмер Бернстайн
монтаж Арметта Джексон-Гамлетт, Джеймс Кофорд, Джеймс Мелтон
бюджет $44 000 000
Сэмпл, IMDB, КиноПоиск
Источник/Качество: DVDRip
Формат: AVI
Видео кодек: XviD
Аудио кодек: AC3
Видео: 720x304 (2.37:1), 25 fps, XviD MPEG-4 ~1940 kbps avg, 0.35 bit/pixel
Аудио: Rus 48 kHz, AC3 Dolby Digital, 2/0 (L,R) ch, ~192.00 kbps avg
Аудио #2: Eng 48 kHz, AC3 Dolby Digital, 3/2 (L,C,R,l,r) + LFE ch, ~384.00 kbps avg
Субтитры: нет
General
Format : AVI
Format/Info : Audio Video Interleave
File size : 1.36 GiB
Duration : 1h 16mn
Overall bit rate : 2 532 Kbps
Movie name : Black Cauldron (Rus/Eng) /Perfection Series/
Director : Great Dragon | 25KADR
Writing application : VirtualDubMod 1.5.10.2 (build 2540/release)
Writing library : VirtualDubMod build 2540/release
Copyright : October 27, 2008
Video #0
ID : 0
Format : MPEG-4 Visual
Format profile : [email protected]
Format settings, BVOP : Yes
Format settings, QPel : Yes
Format settings, GMC : No warppoints
Format settings, Matrix : Default (H.263)
Muxing mode : Packed bitstream
Codec ID : XVID
Codec ID/Hint : XviD
Duration : 1h 16mn
Bit rate : 1 941 Kbps
Width : 720 pixels
Height : 304 pixels
Display aspect ratio : 2.35:1
Frame rate : 25.000 fps
Resolution : 24 bits
Colorimetry : 4:2:0
Scan type : Progressive
Bits/(Pixel*Frame) : 0.355
Stream size : 1.04 GiB (77%)
Writing library : XviD 1.1.2 (UTC 2006-11-01)
Audio #1
ID : 1
Format : AC-3
Format/Info : Audio Coding 3
Codec ID : 2000
Duration : 1h 16mn
Bit rate mode : Constant
Bit rate : 192 Kbps
Channel(s) : 2 channels
Channel positions : L R
Sampling rate : 48.0 KHz
Stream size : 105 MiB (8%)
Alignment : Split accross interleaves
Interleave, duration : 40 ms (1.00 video frame)
Interleave, preload duration : 500 ms
Title : Rus
Audio #2
ID : 2
Format : AC-3
Format/Info : Audio Coding 3
Codec ID : 2000
Duration : 1h 16mn
Bit rate mode : Constant
Bit rate : 384 Kbps
Channel(s) : 6 channels
Channel positions : Front: L C R, Surround: L R, LFE
Sampling rate : 48.0 KHz
Stream size : 211 MiB (15%)
Alignment : Split accross interleaves
Interleave, duration : 40 ms (1.00 video frame)
Interleave, preload duration : 500 ms
Title : Eng







-
-

-
-
Download / Скачать

Хотите скачать бесплатно? Зарегистрируйтесь на сайте (ссылка на регистрацию). Pirat.ca - самый быстрый торрент трекер в рунете!

Как скачивать  ·   Что такое торрент  ·   Рейтинг и ограничения

Пост 19-Ноя-2011 16:22 (спустя 8 минут)

Топик был перенесен из форума Мультипликация в форум Зарубежные полнометражные мультфильмы

zyyx
 

Принц Датский

Корсар

Пост 19-Ноя-2011 18:40 (спустя 2 часа 25 минут)

[Q] 

спасибо,братSirota, бочки наготове!!! aa

_________________
[Профиль]  [ЛС] 

phaeton77

Корсар

Пост 22-Янв-2012 11:36 (спустя 2 месяца 2 дня)

[Q] 

[Профиль]  [ЛС] 

ursus

Морской Волк

Пост 01-Фев-2012 23:19 (спустя 10 дней)

[Q] 

[Профиль]  [ЛС] 

iuotkach

Морской Волк

Пост 04-Июн-2012 11:53 (спустя 4 месяца 2 дня)

[Q] 

[Профиль]  [ЛС] 

CHARLI2236

1096

Пост 30-Окт-2012 13:43 (спустя 4 месяца 26 дней)

[Q] 

благодарю

_________________
[Профиль]  [ЛС] 

Golsergio

Флибустьер

Пост 07-Июл-2013 00:24 (спустя 8 месяцев 7 дней)

[Q] 

[Профиль]  [ЛС] 

sergena

Морской Волк

Пост 29-Мар-2014 21:34 (спустя 8 месяцев 22 дня)

[Q] 

а Живова почему нет
[Профиль]  [ЛС] 

darkroot

Шкипер

Пост 03-Июл-2014 07:44 (спустя 3 месяца 4 дня)

[Q] 

Лови бочку спасибо

_________________
[Профиль]  [ЛС] 
Показать сообщения:    
Ответить на тему

Текущее время: Сегодня 20:02

Часовой пояс: GMT + 4



Вы не можете начинать темы
Вы не можете отвечать на сообщения
Вы не можете редактировать свои сообщения
Вы не можете удалять свои сообщения
Вы не можете голосовать в опросах
Вы не можете прикреплять файлы к сообщениям
Вы не можете скачивать файлы

▼ Вниз