ML
     
  Уважаемый Гость!
Вы можете поддержать проект и зарегистрироваться у наших партнеров - онлайн-стратегия MyLands. При регистрации в игре Вы получите код, который сможете активировать после регистрации на pirat.ca и получить 1000 дублонов.

Ваш код:
f612af22ea70acf5cbe90707ac5a076d215f8f7f
 
     

Артур и война двух миров / Arthur et la guerre des deux mondes (Люк Бессон / Luc Besson) [2010 г., фэнтези, приключения, семейный, BDRip] (Dub)

Ответить на тему
 
Автор
Сообщение

Пост 19-Ноя-2011 16:53

[Q] 

Sirota

Легенда

Артур и война двух миров / Arthur et la guerre des deux mondes
Год выпуска: 2010
Мировая премьера: 22 августа 2010
Российская премьера: 18 ноября 2010, «Централ Партнершип»
Дата выхода DVD: 16 декабря 2010, «CP-Digital»
Производство: Франция
Жанр: фэнтези, приключения, семейный
Продолжительность: 01:41:09
Перевод: профессиональный (полное дублирование) лицензия
Автор(ы) перевода: Филипп Бледный, Владимир Зайцев, Владислав Копп, Мария Кожевникова, Василий Дахненко
Режиссер: Люк Бессон / Luc Besson
В ролях: Фредди Хаймор
Лу Рид
Игги Поп
Селена Гомес
Миа Фэрроу
Рон Кроуфорд
Роберт Стэнтон
Пенни Бальфур
Ричард Дэвис
Джимми Фэллон
Описание: в который он переместился обманным путем? Как Артур, оставшийся в мире минипутов, сможет победить жестокого Ужасного У? Чтобы сохранить любовь прекрасной принцессы Селении, Артур готов вступить в бой против Урдалака как в мире минипутов, так и в большом реальном мире…
Доп. информация: сценарий Люк Бессон, Селин Гарсиа
продюсер Люк Бессон, Эммануель Превост, Стефани Лекомте
оператор Тьерри Арбогаст
композитор Эрик Серра
художник Хью Тиссандье, Жилль Буалло, Оливье Берио
бюджет €65 000 000
Сэмпл, IMDB, КиноПоиск
Источник/Качество: BDRip исходник - Blu-ray disc 1080р
Формат: AVI
Видео кодек: XviD
Аудио кодек: AC3
Видео: 720x304 (2.37:1), 23.976 fps, XviD build 61 ~1675 kbps avg, 0.32 bit/pixel
Аудио: 48 kHz, AC3 Dolby Digital, 3/2 (L,C,R,l,r) + LFE ch, ~384.00 kbps avg
Субтитры: нет
Сезар, 2011 год
Номинации (1):
Лучший анимационный фильм
General
Format : AVI
Format/Info : Audio Video Interleave
File size : 1.46 GiB
Duration : 1h 41mn
Overall bit rate : 2 069 Kbps
Writing application : VirtualDubMod 1.5.10.3 (build 2550/release)
Writing library : VirtualDubMod build 2550/release
Video #0
ID : 0
Format : MPEG-4 Visual
Format profile : [email protected]
Format settings, BVOP : Yes
Format settings, QPel : No
Format settings, GMC : No warppoints
Format settings, Matrix : Custom
Codec ID : XVID
Codec ID/Hint : XviD
Duration : 1h 41mn
Bit rate : 1 676 Kbps
Width : 720 pixels
Height : 304 pixels
Display aspect ratio : 2.35:1
Frame rate : 23.976 fps
Resolution : 24 bits
Colorimetry : 4:2:0
Scan type : Progressive
Bits/(Pixel*Frame) : 0.319
Stream size : 1.18 GiB (81%)
Writing library : XviD 61
Audio #1
ID : 1
Format : AC-3
Format/Info : Audio Coding 3
Codec ID : 2000
Duration : 1h 41mn
Bit rate mode : Constant
Bit rate : 384 Kbps
Channel(s) : 6 channels
Channel positions : Front: L C R, Surround: L R, LFE
Sampling rate : 48.0 KHz
Stream size : 278 MiB (19%)
Alignment : Split accross interleaves
Interleave, duration : 42 ms (1.00 video frame)
Interleave, preload duration : 500 ms







Download / Скачать

Хотите скачать бесплатно? Зарегистрируйтесь на сайте (ссылка на регистрацию). Pirat.ca - самый быстрый торрент трекер в рунете!

Как скачивать  ·   Что такое торрент  ·   Рейтинг и ограничения

Пост 19-Ноя-2011 16:58 (спустя 5 минут)

Топик был перенесен из форума Мультипликация в форум Зарубежные полнометражные мультфильмы

zyyx
 

mishasmith.sx4

Шкипер

Пост 03-Дек-2011 08:00 (спустя 13 дней)

[Q] 

спасибо,.. хотел посмотреть...
[Профиль]  [ЛС] 

Voland57

Корсар

Пост 11-Июн-2012 15:29 (спустя 6 месяцев 8 дней)

[Q] 

[Профиль]  [ЛС] 

CHARLI2236

1098

Пост 30-Окт-2012 12:47 (спустя 4 месяца 18 дней)

[Q] 

спс

_________________
[Профиль]  [ЛС] 

nightghost77

Лоцман

Пост 07-Фев-2013 13:04 (спустя 3 месяца 8 дней)

[Q] 

Помогите докачать. 3% осталось....
[Профиль]  [ЛС] 

_Marks_

Флибустьер

Пост 13-Мар-2013 08:55 (спустя 1 месяц 5 дней)

[Q] 

[Профиль]  [ЛС] 
Показать сообщения:    
Ответить на тему

Текущее время: Сегодня 00:26

Часовой пояс: GMT + 4



Вы не можете начинать темы
Вы не можете отвечать на сообщения
Вы не можете редактировать свои сообщения
Вы не можете удалять свои сообщения
Вы не можете голосовать в опросах
Вы не можете прикреплять файлы к сообщениям
Вы не можете скачивать файлы

▼ Вниз