ML
     
  Уважаемый Гость!
Вы можете поддержать проект и зарегистрироваться у наших партнеров - онлайн-стратегия MyLands. При регистрации в игре Вы получите код, который сможете активировать после регистрации на pirat.ca и получить 1000 дублонов.

Ваш код:
11f49771fdf057c9d51610e4a0925c3b46ddb655
 
     

Артур и месть Урдалака / Arthur et la vengeance de Maltazard (Люк Бессон / Luc Besson) [2009 г., фэнтези, приключения, семейный, HDRip] (Dub)

Ответить на тему
 
Автор
Сообщение

Пост 19-Ноя-2011 17:29

[Q] 

Sirota

Легенда

Артур и месть Урдалака / Arthur et la vengeance de Maltazard Год выпуска: 2009
Мировая премьера: 26 ноября 2009
Российская премьера: 3 декабря 2009, «Централ Партнершип»
Дата выхода DVD: 14 января 2010, «Новый Диск», «CD Land»
Производство: Франция
Жанр: фэнтези, приключения, семейный
Продолжительность: 01.30.17
Перевод: профессиональный (полное дублирование) лицензия
Оригинальный аудиопоток: Английский
Автор(ы) перевода: Валерия Козлова, Томас Шлеккер, Любовь Германова, Андрей Григорьев-Аполлонов, Тимати
Режиссер: Люк Бессон / Luc Besson
В ролях: Селена Гомес
Фредди Хаймор
Стэйси Фергюсон
Миа Фэрроу
Джимми Фэллон
Снуп Догг
Уилл Ай Эм
Логан Миллер
Роберт Стэнтон
Лу Рид
Описание: Артур в восторге, потому что этой ночью заканчивается десятый лунный цикл, и он, наконец, сможет вернуться в страну минипутов, чтобы воссоединиться с Селенией. В деревне минипуты приготовили в его честь роскошный банкет, а маленькая принцесса облачилась в платье из лепестков роз. Но отец Артура именно в этот долгожданный день объявляет, что их каникулы у бабушки заканчиваются. Они уже собираются уезжать, как вдруг паук кладёт в ладонь Артуру рисунок, на котором написано слово S.O.S. Сомнений нет — Селении угрожает опасность!
Артур, не задумываясь, летит к ней на выручку. Даже если столкнуться с войсками Креба, нового тирана Семи Королевств, спасти Бархлюша, сражаться с крысами, лягушками и волосатыми пауками… Лишь для того, чтобы, попав в деревушку минипутов, узнать, что они вовсе не просили его о помощи! Но кто же мог приготовить такую изобретательную ловушку нашему юному герою?
Доп. информация: сценарий Люк Бессон, Патрис Гарсиа, Селин Гарсиа
продюсер Люк Бессон, Эммануель Превост, Стефани Лекомте
оператор Тьерри Арбогаст
композитор Эрик Серра
художник Хью Тиссандье, Жилль Буалло, Оливье Берио
монтаж Жюльен Рей
бюджет €65 000 000
Сэмпл, IMDB, КиноПоиск
Источник/Качество: HDRip
Формат: AVI
Видео кодек: XviD
Аудио кодек: AC3
Видео: 720x304 (2.37:1), 24.000 fps, XviD build 50 ~1300 kbps avg, 0.25 bit/pixel
Аудио: Rus 48 kHz, AC3 Dolby Digital, 6 ch, ~384.00 kbps avg
Аудио #2: Eng 48 kHz, AC3 Dolby Digital, 3/2 (L,C,R,l,r) + LFE ch, ~384.00 kbps avg
Субтитры: нет
General
Format : AVI
Format/Info : Audio Video Interleave
File size : 1.36 GiB
Duration : 1h 33mn
Overall bit rate : 2 083 Kbps
Writing application : VirtualDubMod 1.5.4.1 (build 2178/release)
Writing library : VirtualDubMod build 2178/release
Video #0
ID : 0
Format : MPEG-4 Visual
Format profile : [email protected]
Format settings, BVOP : Yes
Format settings, QPel : No
Format settings, GMC : No warppoints
Format settings, Matrix : Custom
Codec ID : XVID
Codec ID/Hint : XviD
Duration : 1h 33mn
Bit rate : 1 301 Kbps
Width : 720 pixels
Height : 304 pixels
Display aspect ratio : 2.35:1
Frame rate : 24.000 fps
Resolution : 24 bits
Colorimetry : 4:2:0
Scan type : Progressive
Bits/(Pixel*Frame) : 0.248
Stream size : 872 MiB (62%)
Writing library : XviD 1.2.1 (UTC 2008-12-04)
Audio #1
ID : 1
Format : AC-3
Format/Info : Audio Coding 3
Codec ID : 2000
Duration : 1h 33mn
Bit rate mode : Constant
Bit rate : 384 Kbps
Channel(s) : 6 channels
Sampling rate : 48.0 KHz
Stream size : 257 MiB (18%)
Alignment : Aligned on interleaves
Interleave, duration : 42 ms (1.00 video frame)
Interleave, preload duration : 500 ms
Audio #2
ID : 2
Format : AC-3
Format/Info : Audio Coding 3
Codec ID : 2000
Duration : 1h 33mn
Bit rate mode : Constant
Bit rate : 384 Kbps
Channel(s) : 6 channels
Channel positions : Front: L C R, Surround: L R, LFE
Sampling rate : 48.0 KHz
Stream size : 257 MiB (18%)
Alignment : Split accross interleaves
Interleave, duration : 42 ms (1.00 video frame)
Interleave, preload duration : 500 ms







Download / Скачать

Хотите скачать бесплатно? Зарегистрируйтесь на сайте (ссылка на регистрацию). Pirat.ca - самый быстрый торрент трекер в рунете!

Как скачивать  ·   Что такое торрент  ·   Рейтинг и ограничения

Пост 19-Ноя-2011 17:50 (спустя 20 минут)

Топик был перенесен из форума Мультипликация в форум Зарубежные полнометражные мультфильмы

CaptRom
 

VladAlexp

Лоцман

Пост 22-Ноя-2011 12:25 (спустя 2 дня 18 часов)

[Q] 

встань пож на раздачу Артур и месть урдалака
[Профиль]  [ЛС] 

Cungas

Лоцман

Пост 20-Янв-2012 10:29 (спустя 1 месяц 27 дней)

[Q] 

Не могу скачать, никого нет на раздаче!!! За сутки 10% и все, тормоза!!
[Профиль]  [ЛС] 

CHARLI2236

1097

Пост 30-Окт-2012 12:48 (спустя 9 месяцев 10 дней)

[Q] 

благодарю

_________________
[Профиль]  [ЛС] 
Показать сообщения:    
Ответить на тему

Текущее время: Сегодня 03:11

Часовой пояс: GMT + 4



Вы не можете начинать темы
Вы не можете отвечать на сообщения
Вы не можете редактировать свои сообщения
Вы не можете удалять свои сообщения
Вы не можете голосовать в опросах
Вы не можете прикреплять файлы к сообщениям
Вы не можете скачивать файлы

▼ Вниз