ML
     
  Уважаемый Гость!
Вы можете поддержать проект и зарегистрироваться у наших партнеров - онлайн-стратегия MyLands. При регистрации в игре Вы получите код, который сможете активировать после регистрации на pirat.ca и получить 1000 дублонов.

Ваш код:
fcd618d94adc1456bccbde5047c9cd0930e4ae4d
 
     

Ультрамарины / Ultramarines: A Warhammer 40,000 Movie (Мартин Пик / Martyn Pick) [2010 г., фантастика, боевик, DVDRip] (Dub)

Ответить на тему
 
Автор
Сообщение

Пост 19-Ноя-2011 20:41

[Q] 

Sirota

Легенда

Ультрамарины / Ultramarines: A Warhammer 40,000 Movie Год выпуска: 2010
Мировая премьера: 29 ноября 2010
Производство: Великобритания, Канада
Жанр: фантастика, боевик
Продолжительность: 01:16:28
Перевод: профессиональный (полное дублирование) лицензия
Оригинальный аудиопоток: Английский
Режиссер: Мартин Пик / Martyn Pick
В ролях: Теренс Стэмп
Джон Хёрт
Шон Пертуи
Стивен Вэддингтон
Дональд Самптер
Джонни Харрис
Бен Бишоп
Кристофер Финни
Гари Мартин
Описание: Это 41-ое тысячелетие, дикое и мрачное темное будущее, время, в котором Человечество борется за выживание в галактике, расколотой кровопролитием и разрушением. Человечество находится на грани исчезновения, окружаемое со всех сторон ненавистными врагами — чужими, мутантами и предателями. И только колоссальное число Имперских Гвардейцев и несгибаемая сила Космических Десантников, генетически усовершенствованных элитных воинов, способно дать отпор пришельцам. Из всех древних и почетных орденов Космического Десанта, Ультрамарины — возможно, самый могущественный, уважаемый и бесстрашный. Чистые в помыслах и верности Императору, Ультрамарины считаются наиболее мобильными, строгими, дисциплинированными и бесстрашными воинами. Капитан Северус (Severus), почитаемый ветеран-воин с внушительной репутацией, получил безотлагательную просьбу о помощи с далекой планеты Митрон (Mithron). Ничем не примечательная, Митрон имеет только одну стратегически важную ценность — святыню, защищавшуюся множество раз бесчисленными поколениями Космических Десантников из ордена Имперских Кулаков. Какая напасть могла заставить их просить помощи?
Доп. информация: сценарий Дэн Абнетт
продюсер Боб Томпсон, David Kerney, Майкл Картер,
оператор Даррен Ловелл
композитор Адам Харви
монтаж Дэвид Льюис Смит
Сэмпл, IMDB, КиноПоиск
Источник/Качество: DVDRip
Формат: AVI
Видео кодек: XviD
Аудио кодек: AC3
Видео: 720x400 (1.80:1), 23.976 fps, XviD build 50 ~2075 kbps avg, 0.30 bit/pixel
Аудио: Rus 48 kHz, AC3 Dolby Digital, 3/2 (L,C,R,l,r) + LFE ch, ~448.00 kbps avg
Аудио #2: Eng 48 kHz, AC3 Dolby Digital, 3/2 (L,C,R,l,r) + LFE ch, ~448.00 kbps avg
Субтитры: нет
General
Format : AVI
Format/Info : Audio Video Interleave
File size : 1.60 GiB
Duration : 1h 16mn
Overall bit rate : 2 987 Kbps
Writing application : VirtualDubMod 1.5.10.2 (build 2542/release)
Writing library : VirtualDubMod build 2542/release
Video #0
ID : 0
Format : MPEG-4 Visual
Format profile : [email protected]
Format settings, BVOP : Yes
Format settings, QPel : No
Format settings, GMC : No warppoints
Format settings, Matrix : Default (MPEG)
Codec ID : XVID
Codec ID/Hint : XviD
Duration : 1h 16mn
Bit rate : 2 077 Kbps
Width : 720 pixels
Height : 400 pixels
Display aspect ratio : 16:9
Frame rate : 23.976 fps
Resolution : 24 bits
Colorimetry : 4:2:0
Scan type : Progressive
Bits/(Pixel*Frame) : 0.301
Stream size : 1.11 GiB (70%)
Writing library : XviD 1.2.1 (UTC 2008-12-04)
Audio #1
ID : 1
Format : AC-3
Format/Info : Audio Coding 3
Codec ID : 2000
Duration : 1h 16mn
Bit rate mode : Constant
Bit rate : 448 Kbps
Channel(s) : 6 channels
Channel positions : Front: L C R, Surround: L R, LFE
Sampling rate : 48.0 KHz
Stream size : 245 MiB (15%)
Alignment : Split accross interleaves
Interleave, duration : 42 ms (1.00 video frame)
Interleave, preload duration : 500 ms
Audio #2
ID : 2
Format : AC-3
Format/Info : Audio Coding 3
Codec ID : 2000
Duration : 1h 16mn
Bit rate mode : Constant
Bit rate : 448 Kbps
Channel(s) : 6 channels
Channel positions : Front: L C R, Surround: L R, LFE
Sampling rate : 48.0 KHz
Stream size : 245 MiB (15%)
Alignment : Split accross interleaves
Interleave, duration : 42 ms (1.00 video frame)
Interleave, preload duration : 500 ms







Download / Скачать

Хотите скачать бесплатно? Зарегистрируйтесь на сайте (ссылка на регистрацию). Pirat.ca - самый быстрый торрент трекер в рунете!

Как скачивать  ·   Что такое торрент  ·   Рейтинг и ограничения

Пост 19-Ноя-2011 21:20 (спустя 39 минут)

Топик был перенесен из форума Мультипликация в форум Зарубежные полнометражные мультфильмы

zyyx
 

The_Yozh

Корсар

Пост 19-Ноя-2011 21:39 (спустя 57 минут)

[Q] 

мультфильм УГ. непонятно за что 5.7 поставили

_________________
[Профиль]  [ЛС] 

Nathaniel

Шкипер

Пост 19-Ноя-2011 22:15 (спустя 36 минут)

[Q] 

ну не знаю как для людей не далеких, но для меня, как для фаната настолки, после всех этих ДОВов и Доверастов, очень даже ничего. показаны истинные реалии вахи. в общем За Императора!
[Профиль]  [ЛС] 

XAPOH

Гроза морей

Пост 07-Дек-2011 23:13 (спустя 18 дней)

[Q] 

мультфильм УГ. непонятно за что 5.7 поставили
Мульт на 9 из 10. Просто для людей не знакомых с Вархаммером может показаться нудноватым, да это и не удивительно, в вахе все так наворочено, что человеку не в теме не понять.
Жаль только что история короткая. Я бы с огромным удовольствием посмотрел бы экранизацию циклов "Ересь Хоруса" и "Эйзенхорн", лучше даже чтобы был фильм с современными спецэффектами, фильмец получился бы покруче Аватара ))
За мульт спасибо, качну и посмотрю еще разок. Бочка на палубе!

_________________

<<<Dolus an virtus quis in hoste requirat?>>>
Intel Core i7 2600, 16Gb Ram, GTX 670, SSD.
PS4.
[Профиль]  [ЛС] 

Мизантроп

Штурман

3

Пост 15-Дек-2011 16:55 (спустя 7 дней)

[Q] 

Действительно хороший мульт для тех кто в теме. Жаль, что больше нет таких
[Профиль]  [ЛС] 

Дмитрий11

Лоцман

Пост 14-Мар-2012 18:43 (спустя 2 месяца 30 дней)

[Q] 

странно что на обложке черные храмовники, а в фильме только ульта и кулаки, хотя капеллан мб из храмовников. Я с английской озвучкой смотрел.
[Профиль]  [ЛС] 

C0y0te

1424

Пост 31-Июл-2012 17:39 (спустя 4 месяца 16 дней)

[Q] 

[Профиль]  [ЛС] 

CHARLI2236

1097

Пост 30-Окт-2012 13:40 (спустя 2 месяца 29 дней)

[Q] 

благодарю

_________________
[Профиль]  [ЛС] 

Wolf111

57124

Пост 22-Июл-2013 00:40 (спустя 8 месяцев 22 дня)

[Q] 

За Императора и Рогала Дорна!!!
[Профиль]  [ЛС] 
Показать сообщения:    
Ответить на тему

Текущее время: Сегодня 12:52

Часовой пояс: GMT + 4



Вы не можете начинать темы
Вы не можете отвечать на сообщения
Вы не можете редактировать свои сообщения
Вы не можете удалять свои сообщения
Вы не можете голосовать в опросах
Вы не можете прикреплять файлы к сообщениям
Вы не можете скачивать файлы

▼ Вниз