ML
     
  Уважаемый Гость!
Вы можете поддержать проект и зарегистрироваться у наших партнеров - онлайн-стратегия MyLands. При регистрации в игре Вы получите код, который сможете активировать после регистрации на pirat.ca и получить 1000 дублонов.

Ваш код:
0fcd44bd35319f69313aa6e53b31c51cbff1c942
 
     

Стальной гигант / The Iron Giant (Брэд Бёрд / Brad Bird) [1999 г., фантастика, боевик, комедия, криминал, приключения, семейный, HDTVRip] (Dub)

Ответить на тему
 
Автор
Сообщение

Пост 19-Ноя-2011 21:20

[Q] 

Sirota

Легенда

Стальной гигант / The Iron Giant Год выпуска: 1999
Мировая премьера: 31 июля 1999
Дата выхода DVD: 15 июня 2009, «Юниверсал Пикчерс Рус»
Производство: США
Жанр: фантастика, боевик, комедия, криминал, приключения, семейный
Продолжительность: 01:26:29
Перевод: профессиональный (полное дублирование) лицензия
Оригинальный аудиопоток: Английский
Автор(ы) перевода: Ирина Савина, Ольга Голованова, Дмитрий Филимонов, Дмитрий Матвеев, Борис Быстров
Режиссер: Брэд Бёрд / Brad Bird
В ролях: Эли Мариентал
Вин Дизель
Дженнифер Энистон
Гарри Конник мл.
Джеймс Гэммон
Клорис Личмен
Кристофер МакДональд
Джон Махони
М. Эммет Уолш
Джек Эйнджел
Описание: Жители тихой американской провинции становятся свидетелями ослепительной вспышки и падения огромного летающего объекта. Спустя несколько дней мальчуган по имени Хогарт Хьюз находит в окрестностях гигантского робота, прилетевшего на Землю из далекой космической галактики.
Несмотря на свой грозный вид, инопланетный гость оказывается добрейшим созданием. Между ним и отважным мальчишкой завязывается настоящая дружба. Но узнавшие о существовании робота правительство и военные решили уничтожить пришельца. Хогарт — единственный, кто может спасти стального гиганта…
Доп. информация: сценарий Тим МакКэнлис, Брэд Бёрд, Тед Хьюз
продюсер Эллисон Эббейт, Дес МакАнуфф, Пит Тауншенд,
оператор Стивен Уилзбах
композитор Майкл Кэмен
художник Марк Уайтинг, Алан Боднер
монтаж Даррен Т. Холмс
Сэмпл, IMDB, КиноПоиск
Источник/Качество: HDTVRip
Формат: AVI
Видео кодек: XviD
Аудио кодек: AC3
Видео: 720x304 (2.37:1), 23.976 fps, XviD build 50 ~1622 kbps avg, 0.31 bit/pixel
Аудио: Rus 48 kHz, AC3 Dolby Digital, 3/2 (L,C,R,l,r) + LFE ch, ~383.98 kbps avg
Аудио #2: Eng 48 kHz, AC3 Dolby Digital, 3/2 (L,C,R,l,r) + LFE ch, ~383.98 kbps avg
Субтитры: нет
Сатурн, 2000 год
Номинации (1):
Лучшее VHS-издание
General
Format : AVI
Format/Info : Audio Video Interleave
File size : 1.45 GiB
Duration : 1h 26mn
Overall bit rate : 2 406 Kbps
Writing application : VirtualDubMod 1.5.10.2 (build 2542/release)
Video #0
ID : 0
Format : MPEG-4 Visual
Format profile : [email protected]
Format settings, BVOP : Yes
Format settings, QPel : No
Format settings, GMC : No warppoints
Format settings, Matrix : Custom
Codec ID : XVID
Codec ID/Hint : XviD
Duration : 1h 26mn
Bit rate : 1 624 Kbps
Width : 720 pixels
Height : 304 pixels
Display aspect ratio : 2.35:1
Frame rate : 23.976 fps
Resolution : 24 bits
Colorimetry : 4:2:0
Scan type : Progressive
Bits/(Pixel*Frame) : 0.309
Stream size : 1 005 MiB (67%)
Writing library : XviD 1.2.1 (UTC 2008-12-04)
Audio #1
ID : 1
Format : AC-3
Format/Info : Audio Coding 3
Codec ID : 2000
Duration : 1h 26mn
Bit rate mode : Constant
Bit rate : 384 Kbps
Channel(s) : 6 channels
Channel positions : Front: L C R, Surround: L R, LFE
Sampling rate : 48.0 KHz
Resolution : 16 bits
Stream size : 238 MiB (16%)
Alignment : Split accross interleaves
Interleave, duration : 42 ms (1.00 video frame)
Interleave, preload duration : 500 ms
Audio #2
ID : 2
Format : AC-3
Format/Info : Audio Coding 3
Codec ID : 2000
Duration : 1h 26mn
Bit rate mode : Constant
Bit rate : 384 Kbps
Channel(s) : 6 channels
Channel positions : Front: L C R, Surround: L R, LFE
Sampling rate : 48.0 KHz
Resolution : 16 bits
Stream size : 238 MiB (16%)
Alignment : Split accross interleaves
Interleave, duration : 42 ms (1.00 video frame)
Interleave, preload duration : 500 ms







Download / Скачать

Хотите скачать бесплатно? Зарегистрируйтесь на сайте (ссылка на регистрацию). Pirat.ca - самый быстрый торрент трекер в рунете!

Как скачивать  ·   Что такое торрент  ·   Рейтинг и ограничения

Пост 19-Ноя-2011 21:41 (спустя 21 минута)

Топик был перенесен из форума Мультипликация в форум Зарубежные полнометражные мультфильмы

zyyx
 

rianon

Штурман

Пост 26-Ноя-2011 06:04 (спустя 6 дней)

[Q] 

замечательный мультфильм, один из любимых был в детстве
[Профиль]  [ЛС] 

strikeF

Корсар

Пост 27-Янв-2012 18:56 (спустя 2 месяца 1 день)

[Q] 

Раздающему респект.
[Профиль]  [ЛС] 

FRED

Шкипер

Пост 01-Фев-2012 17:56 (спустя 4 дня)

[Q] 

душевный мультик))))
[Профиль]  [ЛС] 

savatey

Корсар

Пост 20-Фев-2012 15:48 (спустя 18 дней)

[Q] 

Хороший мульт ! Спасибо !

_________________
[Профиль]  [ЛС] 

DaddyCool

Лоцман

Пост 23-Фев-2012 23:20 (спустя 3 дня)

[Q] 

Мульт реально классный. В детстве плакал, когда робот собой пожертвовал ради жалких людишек...
[Профиль]  [ЛС] 

SERG_E74

Шкипер

448

Пост 24-Фев-2012 21:27 (спустя 22 часа)

[Q] 

Отличный мульт! Огромное спасибо!
[Профиль]  [ЛС] 

CHARLI2236

1096

Пост 30-Окт-2012 13:35 (спустя 8 месяцев 5 дней)

[Q] 

благодарю

_________________
[Профиль]  [ЛС] 

Black_Ogre150

Штурман

Пост 26-Фев-2015 20:21 (спустя 2 года 3 месяца)

[Q] 

Хорошая мульта
[Профиль]  [ЛС] 
Показать сообщения:    
Ответить на тему

Текущее время: Сегодня 02:14

Часовой пояс: GMT + 4



Вы не можете начинать темы
Вы не можете отвечать на сообщения
Вы не можете редактировать свои сообщения
Вы не можете удалять свои сообщения
Вы не можете голосовать в опросах
Вы не можете прикреплять файлы к сообщениям
Вы не можете скачивать файлы

▼ Вниз