ML
     
  Уважаемый Гость!
Вы можете поддержать проект и зарегистрироваться у наших партнеров - онлайн-стратегия MyLands. При регистрации в игре Вы получите код, который сможете активировать после регистрации на pirat.ca и получить 1000 дублонов.

Ваш код:
500cb7bd8d2cec9a8aba647a87ce41c4b76f06bd
 
     

Бэтмен будущего: Возвращение Джокера / Batman Beyond: Return of the Joker (Курт Геда / Curt Geda) [2000 г.] (мультфильм, фантастика, боевик, триллер, криминал) [BDRip] (Dub) + (MVO) + (VO) + (Original)

Ответить на тему
 
Автор
Сообщение

Пост 28-Окт-2011 18:51

[Q] 

Master Chief

Корсар

--Бэтмен будущего: Возвращение Джокера / Batman Beyond: Return of the Joker (2000) BDRip-- Год выпуска: 2000
Мировая премьера: 12 декабря 2000
Производство: США Warner Bros. Animation
Жанр: мультфильм, фантастика, боевик, триллер, криминал
Продолжительность: 01:16:45
Перевод:
1. Профессиональный (полное дублирование)
2. Английский, оригинальная звуковая дорожка
3. Профессиональный (многоголосый закадровый)ТВ3 /отдельно
4. Любительский (одноголосый закадровый)ZM /отдельно
Оригинальный аудиопоток: Английский--Режиссер: Курт Геда / Curt Geda--В ролях: Уилл Фридл, Кевин Конрой, Марк Хэмилл, Энджи Хэрмон, Дин Стокуэлл, Тери Гарр, Арлин Соркин, Тара Стронг, Мэтью Валенсиа, Мелисса Джоан Харт и др.--Описание: Первый полнометражный мультфильм из серии БЭТМЭН БУДУЩЕГО! И старому, и молодому Бэтмэнам не до смеха: самый опасный преступник всех времен возвращается из прошлого, чтобы мстить молодому Бэтмэну, Брюсу Уэйну и всему Готэму. Подлый, смертельно опасный, и, похоже, бессмертный Король Преступного мира возвращается, чтобы сеять зло и разрушение. Пытаясь разгадать тайну Джокера, молодой Бэтмэн, Терри МакГиннис, открывает величайший секрет старого Бэтмэна: он узнает, что на самом деле случилось в ночь его последней смертельной схватки с Джокером! Когда Брюс Вэйн практически уничтожен Джокером, Терри клянется отомстить за своего наставника.--

--Источник/Качество: BDRip
Формат: AVI
Видео кодек: XviD
Аудио кодек: AC3
Видео: 720x544 (4:3), 23.976 fps, XviD 64 ~2113 kbps avg, 0.225 bit/pixel
Аудио #1: Russian 48.0 kHz, АС3, 2 ch ~ 192 Kbps avg (Дублированный)
Аудио #2: English 48.0 kHz, АС3, 6 ch ~ 384 Kbps avg (Original)
Аудио #3: Russian 48.0 kHz, АС3, 2 ch ~ 192 Kbps avg (многоголосый, закадровый - ТВ3/ отдельно)
Аудио #4: Russian 48.0 kHz, АС3, 2 ch ~ 192 Kbps avg (Одноголосный, закадровый - ZM/ отдельно)--
Общее
Полное имя : G:\Торрент\Betmen.buduschego.Vozvraschenie.Dzhokera.2000.BDRip.[pirat.ca]\Betmen.buduschego.Vozvraschenie.Dzhokera.2000.DUAL.BDRip.XviD.AC3.avi
Формат : AVI
Формат/Информация : Audio Video Interleave
Размер файла : 1,45 Гбайт
Продолжительность : 1 ч. 16 м.
Общий поток : 2703 Кбит/сек
Название фильма : Бэтмен будущего: Возвращение Джокера / Batman Beyond: Return of the Joker (2000) BDRip
Программа кодирования : VirtualDubMod 1.5.10.3 | www.virtualdub-fr.org || (build 2550/release)
Формат оригинала/Имя : Movi
Примечание : 07.09.2011
Видео
Идентификатор : 0
Формат : MPEG-4 Visual
Профиль формата : Advanced [email protected]
Параметр BVOP формата : Да
Параметр QPel формата : Нет
Параметр GMC формата : Без точки перехода
Параметр матрицы формата : Выборочная
Идентификатор кодека : XVID
Идентификатор кодека/Подсказка : XviD
Продолжительность : 1 ч. 16 м.
Битрейт : 2113 Кбит/сек
Ширина : 720 пикс.
Высота : 544 пикс.
Соотношение сторон : 4:3
Частота кадров : 23,976 кадр/сек
Цветовое пространство : YUV
Подвыборка цветности : 4:2:0
Битовая глубина : 8 бит
Тип развёртки : Прогрессивная
Метод сжатия : С потерями
Бит/(Пиксели*Кадры) : 0.225
Размер потока : 1,13 Гбайт (78%)
Библиотека кодирования : XviD 64
Аудио #1
Идентификатор : 1
Формат : AC-3
Формат/Информация : Audio Coding 3
Расширение режима : CM (complete main)
Идентификатор кодека : 2000
Продолжительность : 1 ч. 16 м.
Вид битрейта : Постоянный
Битрейт : 192 Кбит/сек
Каналы : 2 канала
Расположение каналов : Front: L R
Частота : 48,0 КГц
Битовая глубина : 16 бит
Метод сжатия : С потерями
Размер потока : 105 Мбайт (7%)
Выравнивание : Разделение по промежуткам
Продолжительность промежутка : 42 мс. (1,00 видеокадр)
Время предзагрузки промежутка : 500 ms
Аудио #2
Идентификатор : 2
Формат : AC-3
Формат/Информация : Audio Coding 3
Расширение режима : CM (complete main)
Идентификатор кодека : 2000
Продолжительность : 1 ч. 16 м.
Вид битрейта : Постоянный
Битрейт : 384 Кбит/сек
Каналы : 6 каналов
Расположение каналов : Front: L C R, Side: L R, LFE
Частота : 48,0 КГц
Битовая глубина : 16 бит
Метод сжатия : С потерями
Размер потока : 211 Мбайт (14%)
Выравнивание : Разделение по промежуткам
Продолжительность промежутка : 42 мс. (1,00 видеокадр)
Время предзагрузки промежутка : 500 ms
Общее
Полное имя : G:\Торрент\Betmen.buduschego.Vozvraschenie.Dzhokera.2000.BDRip.[pirat.ca]\Betmen.buduschego.Vozvraschenie.Dzhokera.2000.DUAL.BDRip.XviD.AC3.MVO.TB3.ac3
Формат : AC-3
Формат/Информация : Audio Coding 3
Размер файла : 105 Мбайт
Продолжительность : 1 ч. 16 м.
Общий поток : 192 Кбит/сек
Аудио
Формат : AC-3
Формат/Информация : Audio Coding 3
Расширение режима : CM (complete main)
Продолжительность : 1 ч. 16 м.
Вид битрейта : Постоянный
Битрейт : 192 Кбит/сек
Каналы : 2 канала
Расположение каналов : Front: L R
Частота : 48,0 КГц
Битовая глубина : 16 бит
Метод сжатия : С потерями
Размер потока : 105 Мбайт (100%)
Общее
Полное имя : G:\Торрент\Betmen.buduschego.Vozvraschenie.Dzhokera.2000.BDRip.[pirat.ca]\Betmen.buduschego.Vozvraschenie.Dzhokera.2000.DUAL.BDRip.XviD.AC3.VO.ZM.ac3
Формат : AC-3
Формат/Информация : Audio Coding 3
Размер файла : 105 Мбайт
Продолжительность : 1 ч. 16 м.
Общий поток : 192 Кбит/сек
Аудио
Формат : AC-3
Формат/Информация : Audio Coding 3
Расширение режима : CM (complete main)
Продолжительность : 1 ч. 16 м.
Вид битрейта : Постоянный
Битрейт : 192 Кбит/сек
Каналы : 2 канала
Расположение каналов : Front: L R
Частота : 48,0 КГц
Битовая глубина : 16 бит
Метод сжатия : С потерями
Размер потока : 105 Мбайт (100%)
--
-- --
Download / Скачать

Хотите скачать бесплатно? Зарегистрируйтесь на сайте (ссылка на регистрацию). Pirat.ca - самый быстрый торрент трекер в рунете!

Как скачивать  ·   Что такое торрент  ·   Рейтинг и ограничения

Пост 29-Окт-2011 00:50 (спустя 5 часов)

Топик был перенесен из форума Художественные фильмы (Зарубежное кино) в форум Современное кино (с 2000 г.)

Чужая
 

Pywkin

Шкипер

Пост 06-Июл-2012 23:36 (спустя 8 месяцев 9 дней)

[Q] 

Мульт так себе, но малой смотрел синтересом.
[Профиль]  [ЛС] 

CHARLI2236

1094

Пост 27-Авг-2013 21:50 (спустя 1 год 1 месяц)

[Q] 

поддерживается группой AntiZip

_________________
[Профиль]  [ЛС] 
Показать сообщения:    
Ответить на тему

Текущее время: Сегодня 01:43

Часовой пояс: GMT + 4



Вы не можете начинать темы
Вы не можете отвечать на сообщения
Вы не можете редактировать свои сообщения
Вы не можете удалять свои сообщения
Вы не можете голосовать в опросах
Вы не можете прикреплять файлы к сообщениям
Вы не можете скачивать файлы

▼ Вниз