ML
     
  Уважаемый Гость!
Вы можете поддержать проект и зарегистрироваться у наших партнеров - онлайн-стратегия MyLands. При регистрации в игре Вы получите код, который сможете активировать после регистрации на pirat.ca и получить 1000 дублонов.

Ваш код:
a978488e62322cd72e113ab723b8a7fdc10eb9b9
 
     

Медвежонок Винни и его друзья / Winnie the Pooh (Стивен Дж. Андерсон / Stephen J. Anderson, Дон Холл / Don Hall) [2011 г., комедия. приключения, мюзикл, семейный, HDRip] (Dub)

Ответить на тему
 
Автор
Сообщение

Пост 20-Ноя-2011 07:35

[Q] 

Sirota

Легенда

Медвежонок Винни и его друзья / Winnie the Pooh
Год выпуска: 2011
Мировая премьера: 6 апреля 2011
Российская премьера: 25 августа 2011, «WDSSPR»
Дата выхода DVD: 18 октября 2011, «Уолт Дисней Компани СНГ»
Производство: США Walt Disney Animation Studios
Жанр: комедия. приключения, мюзикл, семейный
Продолжительность: 01:03:03
Перевод: профессиональный (полное дублирование) лицензия
Оригинальный аудиопоток: Английский
Автор(ы) перевода: Виктор Костецкий, Владимир Баранов, Дмитрий Лагачев, Андрей Матвеев, Мария Соснякова
Режиссер: Стивен Дж. Андерсон / Stephen J. Anderson, Дон Холл / Don Hall
В ролях: Джон Клиз
Джим Каммингс
Бад Лакки
Крэйг Фергюсон
Джек Болтер
Трэвис Оутс
Кристен Андерсон-Лопес
Виатт Дин Холл
Том Кенни
Хьюелл Хаузер
Описание: Когда Ослик Ушастик теряет свой хвост, Филин отправляет друзей (Винни, Тигрулю, Кролика, Хрюню, Кенгу и Крошку Ру) помочь бедолаге найти пропажу, а заодно — спасти Кристофера Робина от таинственного Яскорра. А ведь медвежонок Винни, собирался всего лишь отыскать где-нибудь немного мёда, чтобы слегка подкрепиться, и даже не предполагал, что его ждёт такой суматошный день!
Доп. информация: сценарий Алан Милн, Эрнест Шепард, Стивен Дж. Андерсон,
продюсер Питер Дел Вечо, Кларк Спенсер, Джон Лассетер,
оператор Хулио Макат,
композитор Генри Джекман,
художник Пол А. Феликс, Патрик М. Салливан мл.,
монтаж Лиза Линдер
бюджет $30 000 000
сборы в США $26 692 846
сборы в мире $33 152 846
сборы в России $1 140 979

Сэмпл, IMDB, КиноПоиск
Источник/Качество: HDRip исходник: BDRip 1080p
Формат: AVI
Видео кодек: XviD
Аудио кодек: AC3
Видео: 720x400 (1.80:1), 23.976 fps, XviD build 50 ~2058 kbps avg, 0.30 bit/pixel
Аудио: Rus 48 kHz, AC3 Dolby Digital, 3/2 (L,C,R,l,r) + LFE ch, ~384.00 kbps avg
Аудио #2: Eng 48 kHz, AC3 Dolby Digital, 3/2 (L,C,R,l,r) + LFE ch, ~448.00 kbps avg
Аудио #3: Ukr 48 kHz, AC3 Dolby Digital, 3/2 (L,C,R,l,r) + LFE ch, ~384.00 kbps avg
Субтитры: нет
General
Format : AVI
Format/Info : Audio Video Interleave
File size : 1.45 GiB
Duration : 1h 3mn
Overall bit rate : 3 295 Kbps
Writing application : VirtualDubModRus 1.5.10.2 (build 2542/release)
Writing library : VirtualDubMod build 2542/release
Video #0
ID : 0
Format : MPEG-4 Visual
Format profile : [email protected]
Format settings, BVOP : Yes
Format settings, QPel : No
Format settings, GMC : No warppoints
Format settings, Matrix : Custom
Codec ID : XVID
Codec ID/Hint : XviD
Duration : 1h 3mn
Bit rate : 2 060 Kbps
Width : 720 pixels
Height : 400 pixels
Display aspect ratio : 16:9
Frame rate : 23.976 fps
Resolution : 24 bits
Colorimetry : 4:2:0
Scan type : Progressive
Bits/(Pixel*Frame) : 0.298
Stream size : 929 MiB (63%)
Writing library : XviD 1.2.1 (UTC 2008-12-04)
Audio #1
ID : 1
Format : AC-3
Format/Info : Audio Coding 3
Codec ID : 2000
Duration : 1h 3mn
Bit rate mode : Constant
Bit rate : 384 Kbps
Channel(s) : 6 channels
Channel positions : Front: L C R, Surround: L R, LFE
Sampling rate : 48.0 KHz
Stream size : 173 MiB (12%)
Alignment : Split accross interleaves
Interleave, duration : 42 ms (1.00 video frame)
Interleave, preload duration : 500 ms
Audio #2
ID : 2
Format : AC-3
Format/Info : Audio Coding 3
Codec ID : 2000
Duration : 1h 3mn
Bit rate mode : Constant
Bit rate : 448 Kbps
Channel(s) : 6 channels
Channel positions : Front: L C R, Surround: L R, LFE
Sampling rate : 48.0 KHz
Stream size : 202 MiB (14%)
Alignment : Split accross interleaves
Interleave, duration : 42 ms (1.00 video frame)
Interleave, preload duration : 500 ms
Audio #3
ID : 3
Format : AC-3
Format/Info : Audio Coding 3
Codec ID : 2000
Duration : 1h 3mn
Bit rate mode : Constant
Bit rate : 384 Kbps
Channel(s) : 6 channels
Channel positions : Front: L C R, Surround: L R, LFE
Sampling rate : 48.0 KHz
Stream size : 173 MiB (12%)
Alignment : Split accross interleaves
Interleave, duration : 42 ms (1.00 video frame)
Interleave, preload duration : 500 ms







Download / Скачать

Хотите скачать бесплатно? Зарегистрируйтесь на сайте (ссылка на регистрацию). Pirat.ca - самый быстрый торрент трекер в рунете!

Как скачивать  ·   Что такое торрент  ·   Рейтинг и ограничения

Пост 20-Ноя-2011 10:35 (спустя 2 часа 59 минут)

Топик был перенесен из форума Мультипликация в форум Новинки (HD|DVD|BD|TV|SAT|PDTV| - Rips)

CaptRom
 

ппавел

Шкипер

Пост 20-Ноя-2011 14:57 (спустя 7 часов)

[Q] 

спасибо
[Профиль]  [ЛС] 

Filimonia

Корсар

Пост 21-Ноя-2011 02:20 (спустя 11 часов)

[Q] 

Спасибо за медвежонка!
[Профиль]  [ЛС] 

Карибас

Корсар

Пост 21-Ноя-2011 07:01 (спустя 4 часа)

[Q] 

Спасибо, большое!
[Профиль]  [ЛС] 

Andrello

Шкипер

Пост 13-Мар-2012 09:27 (спустя 3 месяца 22 дня)

[Q] 

[Профиль]  [ЛС] 

OlegSh

Морской Волк

Пост 02-Май-2012 10:19 (спустя 1 месяц 20 дней)

[Q] 

очень интересно
[Профиль]  [ЛС] 

CHARLI2236

1096

Пост 30-Окт-2012 13:17 (спустя 5 месяцев 28 дней)

[Q] 

спс

_________________
[Профиль]  [ЛС] 

Zha-pol

Легенда

Пост 04-Фев-2013 18:55 (спустя 3 месяца 5 дней)

[Q] 


_________________
[Профиль]  [ЛС] 

ab999

Шкипер

Пост 08-Фев-2013 02:52 (спустя 3 дня)

[Q] 

особо не люблю американского винни, но тут по делу пригодится скриншотов нарезать, так что спасибо большое автору. лови бочку!
[Профиль]  [ЛС] 
Показать сообщения:    
Ответить на тему

Текущее время: Сегодня 22:03

Часовой пояс: GMT + 4



Вы не можете начинать темы
Вы не можете отвечать на сообщения
Вы не можете редактировать свои сообщения
Вы не можете удалять свои сообщения
Вы не можете голосовать в опросах
Вы не можете прикреплять файлы к сообщениям
Вы не можете скачивать файлы

▼ Вниз