ML
     
  Уважаемый Гость!
Вы можете поддержать проект и зарегистрироваться у наших партнеров - онлайн-стратегия MyLands. При регистрации в игре Вы получите код, который сможете активировать после регистрации на pirat.ca и получить 1000 дублонов.

Ваш код:
fcd618d94adc1456bccbde5047c9cd0930e4ae4d
 
     

Планета 51 / Planet 51 (Хорхе Бланко, Хавьер Абад, Маркос Мартинез / Jorge Blanco, Javier Abad, Marcos Martinez) [2009 г., фантастика, комедия, приключения, семейный, BDRip] (Dub)

Ответить на тему
 
Автор
Сообщение

Пост 20-Ноя-2011 08:21

[Q] 

Sirota

Легенда

Планета 51 / Planet 51 Год выпуска: 2009
Мировая премьера: 14 ноября 2009
Российская премьера: 19 ноября 2009, «Парадиз»
Дата выхода DVD: 17 декабря 2009, «Парадиз Видео»
Производство: США, Великобритания, Испания
Жанр: фантастика, комедия, приключения, семейный
Продолжительность: 01:31:01
Перевод: профессиональный (полное дублирование) лицензия
Автор(ы) перевода: Рамиля Искандер, Леонид Белозорович, Михаил Георгиу, Денис Беспалый, Михаил Тихонов
Режиссер: Хорхе Бланко, Хавьер Абад, Маркос Мартинез / Jorge Blanco, Javier Abad, Marcos Martinez
В ролях: Джессика Бил
Джон Клиз
Гари Олдман
Дуэйн Джонсон
Джастин Лонг
Шонн Уильям Скотт
Фредди Бенедикт
Алан Марриотт
Мэтью Хорн
Джеймс Корден
Описание: Главный герой — американский астронавт капитан Чарльз «Чак» Бейкер — высаживается на планете 51, которая по началу кажется ему необитаемой. К своему удивлению он обнаруживает, что планету населяют маленькие зеленые человечки. Их сообщество очень напоминает счастливую одноэтажную Америку времен 1950-х годов. И боятся эти человечки только нападения со стороны инопланетных захватчиков… таких, как Чак!
Полагаясь на помощь своего робота-напарника «Ровера» и нового друга Лема, Чаку придется обогнуть весь этот изумительный и непонятный мир, чтобы не оказаться навечно экспонатом в Музее Инопланетных Захватчиков Планеты 51.
Доп. информация: сценарий Джо Стиллман,
продюсер Гай Коллинз, Игнасио Перез Долсет, Томас Д. Адельман,
композитор Джеймс Сеймур Бретт,
художник Джулиан Муньос Ромеро, Фернандо Хуарес,
монтаж Алекс Родригез
бюджет $70 000 000
сборы в США $42 194 060
сборы в мире $104 883 337
сборы в России $3 450 825

Сэмпл, IMDB, КиноПоиск
Источник/Качество: BDRip
Формат: AVI
Видео кодек: XviD
Аудио кодек: AC3
Видео: 720x304 (2.37:1), 23.976 fps, XviD build 64 ~1896 kbps avg, 0.36 bit/pixel
Аудио: 48 kHz, AC3 Dolby Digital, 3/2 (L,C,R,l,r) + LFE ch, ~384.00 kbps avg
Субтитры: нет
Европейская киноакадемия, 2010 год
Номинации (1):
Лучший анимационный фильм
Гойя, 2010 год
Победитель (1):
Лучший анимационный фильм
General
Format : AVI
Format/Info : Audio Video Interleave
File size : 1.46 GiB
Duration : 1h 31mn
Overall bit rate : 2 290 Kbps
Writing application : VirtualDubMod 1.5.10.2 (build 2540/release)
Writing library : VirtualDubMod build 2540/release
Video #0
ID : 0
Format : MPEG-4 Visual
Format profile : [email protected]
Format settings, BVOP : Yes
Format settings, QPel : No
Format settings, GMC : No warppoints
Format settings, Matrix : Custom
Codec ID : XVID
Codec ID/Hint : XviD
Duration : 1h 31mn
Bit rate : 1 897 Kbps
Width : 720 pixels
Height : 304 pixels
Display aspect ratio : 2.35:1
Frame rate : 23.976 fps
Resolution : 24 bits
Colorimetry : 4:2:0
Scan type : Progressive
Bits/(Pixel*Frame) : 0.361
Stream size : 1.21 GiB (83%)
Writing library : XviD 64
Audio #1
ID : 1
Format : AC-3
Format/Info : Audio Coding 3
Codec ID : 2000
Duration : 1h 31mn
Bit rate mode : Constant
Bit rate : 384 Kbps
Channel(s) : 6 channels
Channel positions : Front: L C R, Surround: L R, LFE
Sampling rate : 48.0 KHz
Stream size : 250 MiB (17%)
Alignment : Split accross interleaves
Interleave, duration : 42 ms (1.00 video frame)
Interleave, preload duration : 500 ms







Download / Скачать

Хотите скачать бесплатно? Зарегистрируйтесь на сайте (ссылка на регистрацию). Pirat.ca - самый быстрый торрент трекер в рунете!

Как скачивать  ·   Что такое торрент  ·   Рейтинг и ограничения

Пост 20-Ноя-2011 10:33 (спустя 2 часа 11 минут)

Топик был перенесен из форума Мультипликация в форум Зарубежные полнометражные мультфильмы

CaptRom
 

Luzhok

Легенда

Пост 20-Ноя-2011 11:28 (спустя 3 часа)

[Q] 

Sirota
большое спасибо!
[Профиль]  [ЛС] 

WitFed

Морской Волк

Пост 05-Дек-2011 09:30 (спустя 14 дней)

[Q] 

Спасибо.

_________________
[Профиль]  [ЛС] 

MadDon

Штурман

Пост 06-Май-2012 11:48 (спустя 5 месяцев 1 день)

[Q] 

веселый мультфильм)))))))порадовал)))
спасибо!!!
[Профиль]  [ЛС] 

CHARLI2236

1097

Пост 30-Окт-2012 13:23 (спустя 5 месяцев 24 дня)

[Q] 

спасибо

_________________
[Профиль]  [ЛС] 
Показать сообщения:    
Ответить на тему

Текущее время: Сегодня 12:51

Часовой пояс: GMT + 4



Вы не можете начинать темы
Вы не можете отвечать на сообщения
Вы не можете редактировать свои сообщения
Вы не можете удалять свои сообщения
Вы не можете голосовать в опросах
Вы не можете прикреплять файлы к сообщениям
Вы не можете скачивать файлы

▼ Вниз