ML
     
  Уважаемый Гость!
Вы можете поддержать проект и зарегистрироваться у наших партнеров - онлайн-стратегия MyLands. При регистрации в игре Вы получите код, который сможете активировать после регистрации на pirat.ca и получить 1000 дублонов.

Ваш код:
193c38d0130f05c24de871678ea3ac181461757d
 
     

Правдивая история Кота в сапогах / The True Story of Puss'N Boots (Жером Дешам / Jérôme Deschamps, Паскаль Эрольд / Pascal Hérold) [2009 г., комедия, приключения, семейный, BDRip] (Dub)

Ответить на тему
 
Автор
Сообщение

Пост 20-Ноя-2011 09:49

[Q] 

Sirota

Легенда

Правдивая история Кота в сапогах / The True Story of Puss'N Boots Год выпуска: 2009
Мировая премьера: 6 февраля 2009
Российская премьера: 24 сентября 2009, «Люксор»
Дата выхода DVD: 15 октября 2009, «Columbia/Sony»
Производство: Франция
Жанр: комедия, приключения, семейный
Продолжительность: 01:22:12
Перевод: профессиональный (полное дублирование) лицензия
Автор(ы) перевода: Борис Токарев, Диомид Виноградов, Николай Фоменко, Вячеслав Гришечкин, Илья Исаев
Режиссер: Жером Дешам / Jérôme Deschamps, Паскаль Эрольд / Pascal Hérold
В ролях: Жером Дешам,
Иоланда Моро,
Луиз Валлон,
Артур Дешам,
Жан-Клод Боль-Редда,
Атмен Келиф,
Андре Вильм
Описание: Молодой мельник получает в наследство… кота. Кто мог подумать, что домашняя живность говорит по-человечьи, носит шляпу и сапоги? Обаятельный и хитроумный кот вотрется в доверие к любому и поможет хозяину завоевать сердце Принцессы! Но не только мельник хочет жениться на королевской дочке. Злодеи-конкуренты пойдут на всё, лишь бы свадьба мельника не состоялась.
Доп. информация: сценарий Жером Дешам, Паскаль Эрольд, Маша Макеева,
продюсер Паскаль Эрольд, Роберт Бонер, Катрин Макризи,
композитор Мориарти
монтаж Лорен Пеле
Сэмпл, IMDB, КиноПоиск
Источник/Качество: BDRip источник Blu-ray Remux /1080p
Формат: AVI
Видео кодек: XviD
Аудио кодек: AC3
Видео: 720x400 (1.80:1), 23.976 fps, XviD build 50 ~2069 kbps avg, 0.30 bit/pixel
Аудио: 48 kHz, AC3 Dolby Digital, 3/2 (L,C,R,l,r) + LFE ch, ~448.00 kbps avg
Субтитры: нет
General
Format : AVI
Format/Info : Audio Video Interleave
File size : 1.45 GiB
Duration : 1h 22mn
Overall bit rate : 2 527 Kbps
Director : kingsize87
Writing application : VirtualDubMod 1.5.10.2 (build 2542/release)
Copyright : http://hqclub.net/
Comment : 15.03.2010
Video #0
ID : 0
Format : MPEG-4 Visual
Format profile : [email protected]
Format settings, BVOP : Yes
Format settings, QPel : No
Format settings, GMC : No warppoints
Format settings, Matrix : Custom
Codec ID : XVID
Codec ID/Hint : XviD
Duration : 1h 22mn
Bit rate : 2 070 Kbps
Width : 720 pixels
Height : 400 pixels
Display aspect ratio : 16:9
Frame rate : 23.976 fps
Resolution : 24 bits
Colorimetry : 4:2:0
Scan type : Progressive
Bits/(Pixel*Frame) : 0.300
Stream size : 1.19 GiB (82%)
Writing library : XviD 1.2.1 (UTC 2008-12-04)
Audio #1
ID : 1
Format : AC-3
Format/Info : Audio Coding 3
Codec ID : 2000
Duration : 1h 22mn
Bit rate mode : Constant
Bit rate : 448 Kbps
Channel(s) : 6 channels
Channel positions : Front: L C R, Surround: L R, LFE
Sampling rate : 48.0 KHz
Stream size : 263 MiB (18%)
Alignment : Split accross interleaves
Interleave, duration : 42 ms (1.00 video frame)
Interleave, preload duration : 500 ms






Download / Скачать

Хотите скачать бесплатно? Зарегистрируйтесь на сайте (ссылка на регистрацию). Pirat.ca - самый быстрый торрент трекер в рунете!

Как скачивать  ·   Что такое торрент  ·   Рейтинг и ограничения

Пост 20-Ноя-2011 10:32 (спустя 43 минуты)

Топик был перенесен из форума Мультипликация в форум Зарубежные полнометражные мультфильмы

CaptRom
 

VNNau

Шкипер

Пост 20-Ноя-2011 12:17 (спустя 2 часа 27 минут)

[Q] 

Спасибо! Внучке понравится.
[Профиль]  [ЛС] 

despod

Лоцман

Пост 20-Ноя-2011 15:12 (спустя 2 часа 55 минут)

[Q] 

Будьте добры, проверьте сэмпл т.к сэмпл не найден. Заранее спасибо.
[Профиль]  [ЛС] 

Filimonia

Корсар

Пост 21-Ноя-2011 14:35 (спустя 23 часа)

[Q] 

Спасибо!
[Профиль]  [ЛС] 

nosferato

Штурман

Пост 06-Дек-2011 04:50 (спустя 14 дней)

[Q] 

Спасибо!!! Внучке понравился.

_________________
Велик интернет, а отступать некуда - позади фидо
[Профиль]  [ЛС] 

evgenus123

Лоцман

Пост 08-Янв-2012 18:07 (спустя 1 месяц 2 дня)

[Q] 

спасибо!
[Профиль]  [ЛС] 

was1ya

Морской Волк

Пост 14-Янв-2012 14:10 (спустя 5 дней)

[Q] 

spasibo!

_________________
[Профиль]  [ЛС] 

tu6enka

Флибустьер

Пост 01-Фев-2012 13:32 (спустя 17 дней)

[Q] 

Редкостное УГ!!!! До середины не смог досмотреть...
[Профиль]  [ЛС] 

KIRST

Корсар

Пост 03-Фев-2012 22:19 (спустя 2 дня 8 часов)

[Q] 

[Профиль]  [ЛС] 

roobocop

Штурман

12

Пост 04-Фев-2012 14:51 (спустя 16 часов)

[Q] 

не очень и смешной какойто
[Профиль]  [ЛС] 

vovav-1924

Флибустьер

Пост 05-Фев-2012 21:02 (спустя 1 день 6 часов)

[Q] 

[Профиль]  [ЛС] 

ravinmtv

Морской Волк

Пост 07-Фев-2012 14:16 (спустя 1 день 17 часов)

[Q] 

[Профиль]  [ЛС] 

^_^ Шеля ^_^

Шкипер

Пост 12-Фев-2012 12:50 (спустя 4 дня)

[Q] 

Спасибо
[Профиль]  [ЛС] 

neponimai

Морской Волк

Пост 24-Фев-2012 23:47 (спустя 12 дней)

[Q] 

[Профиль]  [ЛС] 

CHARLI2236

1092

Пост 30-Окт-2012 13:25 (спустя 8 месяцев 5 дней)

[Q] 

благодарю

_________________
[Профиль]  [ЛС] 

ostol

Корсар

Пост 13-Янв-2013 23:52 (спустя 2 месяца 14 дней)

[Q] 

Спасибо. С уважением...
[Профиль]  [ЛС] 

black kat

Лоцман

Пост 08-Июл-2013 13:41 (спустя 5 месяцев 25 дней)

[Q] 

СПАСИБО!!!!!!!!!!!!!!!
[Профиль]  [ЛС] 
Показать сообщения:    
Ответить на тему

Текущее время: Сегодня 18:07

Часовой пояс: GMT + 4



Вы не можете начинать темы
Вы не можете отвечать на сообщения
Вы не можете редактировать свои сообщения
Вы не можете удалять свои сообщения
Вы не можете голосовать в опросах
Вы не можете прикреплять файлы к сообщениям
Вы не можете скачивать файлы

▼ Вниз