ML
     
  Уважаемый Гость!
Вы можете поддержать проект и зарегистрироваться у наших партнеров - онлайн-стратегия MyLands. При регистрации в игре Вы получите код, который сможете активировать после регистрации на pirat.ca и получить 1000 дублонов.

Ваш код:
47bfc18b89c74e4ae0d974e9b6943639e2bff08e
 
     

Планета сокровищ / Treasure Planet (Рон Клементс, Джон Маскер) [2002 г., мультфильм, фантастика, мелодрама, приключения, семейный, DVDRip]

Ответить на тему
 
Автор
Сообщение

Пост 28-Окт-2011 19:20

[Q] 

theWanderer

Корсар

Планета сокровищ / Treasure Planet (Рон Клементс/Ron Clements, Джон Маскер/John Musker)
Год выпуска: 2002
Страна: США
Жанр: мультфильм, фантастика, мелодрама, приключения, семейный
Продолжительность: 1:31
Перевод: Профессиональный (полное дублирование)
Режиссер: Рон Клементс/Ron Clements, Джон Маскер/John Musker
В ролях: Брайан Мюррей
Джозеф Гордон-Левитт
Эмма Томпсон
Дэвид Хайд Пирс
Мартин Шорт
Патрик МакГуэн
Роско Ли Браун
Лори Меткаф
Майкл Уинкотт
Дэйн А. Дэвис
Описание: 16-летний Джим Хоукинс отправляется на поиски таинственной Планеты Сокровищ в компании настоящих космических пиратов. Под руководством корабельного кока, киборга Джона Сильвера, он становится умелым «космоплавателем» и не раз спасает космический галеон от самых серьезных опасностей: черных дыр, взрывов сверхновых и космических штормов.
Но главное испытание поджидает юного героя впереди — предательство близкого друга, который вместе с командой матросов пытается обманом захватить все сокровища и скрыться…
Качество: DVDRip
Формат: MKV
Видео кодек: AVC
Аудио кодек: AC3
Видео: MPEG-4, 688х576, 1747 Кбит/сек, AR 3:2, 25p
Аудио: AC-3, 384 Кбит/сек, 6CH, 48,0 КГц







Общее
Уникальный идентификатор : 176823719427380524167006063765223347537 (0x85070275F3D5526B9A3BBE8DF1DF9551)
Полное имя : F:\Фильмы\Planeta.sokrovich_[pirat.ca].mkv
Формат : Matroska
Версия формата : Version 1
Размер файла : 1,36 Гбайт
Продолжительность : 1 ч. 31 м.
Общий поток : 2118 Кбит/сек
Дата кодирования : UTC 2009-01-26 16:19:11
Программа кодирования : mkvmerge v2.4.1 ('Use Me') built on Dec 5 2008 15:43:32
Библиотека кодирования : libebml v0.7.7 + libmatroska v0.8.1
Видео
Идентификатор : 1
Формат : AVC
Формат/Информация : Advanced Video Codec
Профиль формата : [email protected]
Параметр CABAC формата : Да
Параметр ReFrames формата : 1 кадр
Идентификатор кодека : V_MPEG4/ISO/AVC
Продолжительность : 1 ч. 31 м.
Битрейт : 1747 Кбит/сек
Ширина : 680 пикселей
Высота : 576 пикселей
Соотношение сторон : 3:2
Соотношение сторон в оригинале : 1,181
Частота кадров : 25,000 кадров/сек
Цветовое пространство : YUV
Субдискретизация насыщенности : 4:2:0
Битовая глубина : 8 бит
Тип развёртки : Прогрессивная
Бит/(Пиксели*Кадры) : 0.178
Размер потока : 1,08 Гбайт (80%)
Библиотека кодирования : x264 core 66 r1088M 71ac0a3
Настройки программы : cabac=1 / ref=1 / deblock=1:0:0 / analyse=0x1:0x111 / me=hex / subme=6 / psy_rd=1.0:0.0 / mixed_ref=0 / me_range=16 / chroma_me=1 / trellis=0 / 8x8dct=0 / cqm=0 / deadzone=21,11 / chroma_qp_offset=-4 / threads=3 / nr=0 / decimate=1 / mbaff=0 / bframes=0 / keyint=250 / keyint_min=25 / scenecut=40(pre) / rc=abr / bitrate=1747 / ratetol=1.0 / qcomp=0.60 / qpmin=10 / qpmax=51 / qpstep=4 / ip_ratio=1.40 / aq=1:1.00 / zones=137536,137536,q=40
Язык : English
Аудио
Идентификатор : 2
Формат : AC-3
Формат/Информация : Audio Coding 3
Расширение режима : CM (complete main)
Идентификатор кодека : A_AC3
Продолжительность : 1 ч. 31 м.
Вид битрейта : Постоянный
Битрейт : 384 Кбит/сек
Каналы : 6 каналов
Расположение каналов : Front: L C R, Side: L R, LFE
Частота : 48,0 КГц
Битовая глубина : 16 бит
Метод сжатия : С потерями
Задержка видео : 350 мс.
Размер потока : 252 Мбайт (18%)
Язык : Russian
Download / Скачать

Хотите скачать бесплатно? Зарегистрируйтесь на сайте (ссылка на регистрацию). Pirat.ca - самый быстрый торрент трекер в рунете!

Как скачивать  ·   Что такое торрент  ·   Рейтинг и ограничения



Последний раз редактировалось: theWanderer (2011-10-29 09:44), всего редактировалось 1 раз

lexx

Корсар

129

Пост 29-Окт-2011 00:34 (спустя 5 часов)

[Q] 

Обалденный мульт!скорости б поднавалить
[Профиль]  [ЛС] 

Пост 29-Окт-2011 18:11 (спустя 17 часов)

Топик был перенесен из форума Мультипликация в форум Зарубежные полнометражные мультфильмы

Чужая
 

ku6opr

Морской Волк

184

Пост 01-Ноя-2011 11:14 (спустя 3 дня)

[Q] 

Присоединяюсь, поддержу раздачу!

_________________
[Профиль]  [ЛС] 

Анна 341662

Корсар

11

Пост 16-Ноя-2012 13:26 (спустя 1 год)

[Q] 

Очень классный мульт, и качество хорошее
[Профиль]  [ЛС] 

Wonderwoman

Шкипер

Пост 10-Фев-2013 21:42 (спустя 2 месяца 24 дня)

[Q] 


_________________
Правильно. Неправильно. Плохо. Хорошо. К чему вообще эти ярлыки? Неважно, как оценивают моё поведение другие, важно что я наслаждаюсь происходящим.
[Профиль]  [ЛС] 

black kat

Лоцман

Пост 08-Июл-2013 13:36 (спустя 4 месяца 25 дней)

[Q] 

СПАСИБО!!!!!!!!!!!!!
[Профиль]  [ЛС] 

s.v.l

Корсар

Пост 18-Янв-2014 22:44 (спустя 6 месяцев 10 дней)

[Q] 

Одобрямс!
Лови бочку
[Профиль]  [ЛС] 

ScorpioKZ

Шкипер

Пост 17-Фев-2014 09:54 (спустя 29 дней)

[Q] 

Спасибо!!!
Раздающему респект!
[Профиль]  [ЛС] 
Показать сообщения:    
Ответить на тему

Текущее время: Сегодня 07:04

Часовой пояс: GMT + 4



Вы не можете начинать темы
Вы не можете отвечать на сообщения
Вы не можете редактировать свои сообщения
Вы не можете удалять свои сообщения
Вы не можете голосовать в опросах
Вы не можете прикреплять файлы к сообщениям
Вы не можете скачивать файлы

▼ Вниз