ML
     
  Уважаемый Гость!
Вы можете поддержать проект и зарегистрироваться у наших партнеров - онлайн-стратегия MyLands. При регистрации в игре Вы получите код, который сможете активировать после регистрации на pirat.ca и получить 1000 дублонов.

Ваш код:
db0e0ad91548759ffeb9bb88bed405e1a4b3c165
 
     

История игрушек. Трилогия / Toy Story. Trilogy (Джон Лассетер, Эш Браннон, Ли Анкрич / John Lasseter, Ash Brannon, Lee Unkrich) [1995-2010, мультфильм, фэнтези, комедия, приключения, семейный, HDRip-AVC]

Ответить на тему
 
Автор
Сообщение

Пост 24-Ноя-2011 20:26

[Q] 

zyyx

--История игрушек. Трилогия / Toy Story. Trilogy--
--История игрушек / Toy Story
«Proud to be a vegetable»
-- Год выпуска: 1995
Мировая премьера: 19 ноября 1995
Российская премьера: 1 октября 2009, «BVSPR Sony»
Дата выхода DVD: 1 июня 2010, «Уолт Дисней Компани СНГ»
Дата выхода Blu-Ray: 15 ноября 2011, «Уолт Дисней Компани СНГ»
Производство: США
Жанр: мультфильм, фэнтези, комедия, приключения, семейный
Продолжительность: 01:21:04
Перевод: Профессиональный (полное дублирование)
Режиссер: Джон Лассетер / John Lasseter
В ролях: Том Хэнкс, Тим Аллен, Дон Риклз, Джим Вэрни, Уоллес Шоун, Джон Ратценбергер, Джон Моррис, Эрик Фон Деттен, Лори Меткалф
Описание: Каждый ребенок верит, что когда он оставляет свои игрушки одни, они начинают заниматься своими делами. Этот мультипликационный фильм позволяет убедиться им в своей правоте.
Основная идея фильма — каждая игрушка боится надоесть, стать забытой, замененной другой, так как весь смысл их существования — доставлять счастье своим хозяевам.-IMDB | КиноПоиск-Источник/Качество: HDRip-AVC
Формат: MKV
Видео кодек: H.26x
Аудио кодек: AC3
Видео: 1024x576 (16:9), 23,976 кадр/сек, 2164 Кбит/сек, 0.153 bit/pixel
Аудио: AC3, 2 ch., 48 kHz, ~192.00 kbps (RUS)
Аудио #2: AC3, 2 ch., 48 kHz, ~192.00 kbps (ENG)
Субтитры: Английские, русские, русские (комментарии)
Общее
Уникальный идентификатор : 251815212488345949465238932333309667145 (0xBD71D8878D38D3A98FCF5661810B2749)
Полное имя : C:\pirat.ca\Istoriya.Igrushek.Trilogy.HDRip.x264.potroks\Istoriya.Igrushek.1995.HDRip.x264.potroks.mkv
Формат : Matroska
Версия формата : Version 2
Размер файла : 1,44 Гбайт
Продолжительность : 1 ч. 21 м.
Общий поток : 2538 Кбит/сек
Название фильма : -=POTROKS=-
Дата кодирования : UTC 2011-11-14 15:39:13
Программа кодирования : mkvmerge v4.9.1 ('Ich will') сборка от Jul 11 2011 23:53:15
Библиотека кодирования : libebml v1.2.1 + libmatroska v1.1.1
Видео
Идентификатор : 1
Формат : AVC
Формат/Информация : Advanced Video Codec
Профиль формата : [email protected]
Параметр CABAC формата : Да
Параметр ReFrames формата : 8 кадров
Идентификатор кодека : V_MPEG4/ISO/AVC
Продолжительность : 1 ч. 21 м.
Битрейт : 2164 Кбит/сек
Ширина : 1024 пикселя
Высота : 576 пикселей
Соотношение сторон : 16:9
Режим частоты кадров : Переменный
Частота кадров : 23,976 кадра/сек
Цветовое пространство : YUV
Субдискретизация насыщенности : 4:2:0
Битовая глубина : 8 бит
Тип развёртки : Прогрессивная
Бит/(Пиксели*Кадры) : 0.153
Размер потока : 1,20 Гбайт (83%)
Заголовок : Istoriya.Igrushek.1995.HDRip.x264.potroks
Библиотека кодирования : x264 core 116 r2019M 9cc407d
Настройки программы : cabac=1 / ref=9 / deblock=1:-2:-2 / analyse=0x3:0x133 / me=umh / subme=10 / psy=1 / psy_rd=1.00:0.20 / mixed_ref=1 / me_range=32 / chroma_me=1 / trellis=2 / 8x8dct=1 / cqm=0 / deadzone=21,11 / fast_pskip=1 / chroma_qp_offset=-3 / threads=8 / sliced_threads=0 / nr=0 / decimate=1 / interlaced=0 / bluray_compat=0 / constrained_intra=0 / bframes=3 / b_pyramid=1 / b_adapt=2 / b_bias=0 / direct=3 / weightb=1 / open_gop=0 / weightp=2 / keyint=230 / keyint_min=23 / scenecut=40 / intra_refresh=0 / rc_lookahead=40 / rc=2pass / mbtree=1 / bitrate=2164 / ratetol=1.0 / qcomp=0.60 / qpmin=10 / qpmax=51 / qpstep=4 / cplxblur=20.0 / qblur=0.5 / ip_ratio=1.40 / aq=1:1.00
Язык : English
Аудио #1
Идентификатор : 2
Формат : AC-3
Формат/Информация : Audio Coding 3
Расширение режима : CM (complete main)
Идентификатор кодека : A_AC3
Продолжительность : 1 ч. 21 м.
Вид битрейта : Постоянный
Битрейт : 192 Кбит/сек
Каналы : 2 канала
Расположение каналов : Front: L R
Частота : 48,0 КГц
Битовая глубина : 16 бит
Метод сжатия : С потерями
Размер потока : 112 Мбайт (8%)
Заголовок : AC3 2.0 192 kbps Дубляж, R1
Язык : Russian
Аудио #2
Идентификатор : 3
Формат : AC-3
Формат/Информация : Audio Coding 3
Расширение режима : CM (complete main)
Идентификатор кодека : A_AC3
Продолжительность : 1 ч. 21 м.
Вид битрейта : Постоянный
Битрейт : 192 Кбит/сек
Каналы : 2 канала
Расположение каналов : Front: L R
Частота : 48,0 КГц
Битовая глубина : 16 бит
Метод сжатия : С потерями
Размер потока : 112 Мбайт (8%)
Заголовок : Оригинал
Язык : English
Текст #1
Идентификатор : 4
Формат : UTF-8
Идентификатор кодека : S_TEXT/UTF8
Идентификатор кодека/Информация : UTF-8 Plain Text
Язык : Russian
Текст #2
Идентификатор : 5
Формат : UTF-8
Идентификатор кодека : S_TEXT/UTF8
Идентификатор кодека/Информация : UTF-8 Plain Text
Заголовок : Комментарии
Язык : Russian
Текст #3
Идентификатор : 6
Формат : ASS
Идентификатор кодека : S_TEXT/ASS
Идентификатор кодека/Информация : Advanced Sub Station Alpha
Метод сжатия : Без потерь
Язык : English



-
--История игрушек 2 / Toy Story 2
«The Toys are Back in Town»
-- Год выпуска: 1999
Мировая премьера: 13 ноября 1999
Российская премьера: 1 октября 2009, «BVSPR Sony»
Дата выхода DVD: 15 июня 2010, «Уолт Дисней Компани СНГ»
Дата выхода Blu-Ray: 15 ноября 2011, «Уолт Дисней Компани СНГ»
Производство: США
Жанр: мультфильм, фэнтези, комедия, приключения, семейный
Продолжительность: 01:38:15
Перевод: Профессиональный (полное дублирование)
Режиссер: Джон Лассетер, Эш Браннон, Ли Анкрич / John Lasseter, Ash Brannon, Lee Unkrich
В ролях: Том Хэнкс, Тим Аллен, Джоан Кьюсак, Келси Грэммер, Дон Риклз, Джим Варни, Уоллес Шоун, Джон Ратценбергер, Энни Поттс, Уэйн Найт
Описание: Ковбой Вуди и другие игрушки мальчика по имени Энди продолжают жить, радуясь каждому дню. Но неожиданно все меняется, когда Вуди похищает коварный коллекционер. Оказывается, что Вуди — очень ценная игрушка из коллекции, за которую японский музей игрушек готов заплатить огромную сумму. В доме коллекционера он находит своих родственников. В это время игрушки во главе с Баззом Лайтером отправляются спасать Вуди.
Вуди узнает о своем знаменитом прошлом, Базз и другие игрушки проходят опасный и тернистый путь. Перед Вуди встает непростой вопрос — каково же его предназначение? Блистать в витрине музея или же вернуться к любимому хозяину?-IMDB | КиноПоиск-Источник/Качество: HDRip-AVC
Формат: MKV
Видео кодек: H.26x
Аудио кодек: AC3
Видео: 1024x576 (16:9), 23,976 кадр/сек, 1449 Кбит/сек, 0.102 bit/pixel
Аудио: AC3, 2 ch., 48 kHz, ~192.00 kbps (RUS)
Аудио #2: AC3, 2 ch., 48 kHz, ~192.00 kbps (ENG)
Субтитры: Английские, русские, русские (комментарии)
Общее
Уникальный идентификатор : 209039736899013796392546055443926763513 (0x9D4396C13CB1F954BFD48AE2EA8C47F9)
Полное имя : C:\pirat.ca\Istoriya.Igrushek.Trilogy.HDRip.x264.potroks\Istoriya.Igrushek.2.1999.x264.potroks.mkv
Формат : Matroska
Версия формата : Version 2
Размер файла : 1,28 Гбайт
Продолжительность : 1 ч. 38 м.
Общий поток : 1870 Кбит/сек
Название фильма : -=POTROKS=-
Дата кодирования : UTC 2011-11-14 15:41:09
Программа кодирования : mkvmerge v4.9.1 ('Ich will') сборка от Jul 11 2011 23:53:15
Библиотека кодирования : libebml v1.2.1 + libmatroska v1.1.1
Видео
Идентификатор : 1
Формат : AVC
Формат/Информация : Advanced Video Codec
Профиль формата : [email protected]
Параметр CABAC формата : Да
Параметр ReFrames формата : 9 кадров
Идентификатор кодека : V_MPEG4/ISO/AVC
Продолжительность : 1 ч. 38 м.
Битрейт : 1449 Кбит/сек
Номинальный битрейт : 1601 Кбит/сек
Ширина : 1024 пикселя
Высота : 576 пикселей
Соотношение сторон : 16:9
Режим частоты кадров : Переменный
Частота кадров : 23,976 кадра/сек
Цветовое пространство : YUV
Субдискретизация насыщенности : 4:2:0
Битовая глубина : 8 бит
Тип развёртки : Прогрессивная
Бит/(Пиксели*Кадры) : 0.102
Размер потока : 1018 Мбайт (77%)
Заголовок : Istoriya.Igrushek.2.1999.x264.potroks
Библиотека кодирования : x264 core 116 r2019M 9cc407d
Настройки программы : cabac=1 / ref=10 / deblock=1:-2:-2 / analyse=0x3:0x133 / me=umh / subme=10 / psy=1 / psy_rd=1.00:0.20 / mixed_ref=1 / me_range=32 / chroma_me=1 / trellis=2 / 8x8dct=1 / cqm=0 / deadzone=21,11 / fast_pskip=1 / chroma_qp_offset=-3 / threads=8 / sliced_threads=0 / nr=0 / decimate=1 / interlaced=0 / bluray_compat=0 / constrained_intra=0 / bframes=3 / b_pyramid=1 / b_adapt=2 / b_bias=0 / direct=3 / weightb=1 / open_gop=0 / weightp=2 / keyint=230 / keyint_min=23 / scenecut=40 / intra_refresh=0 / rc_lookahead=40 / rc=2pass / mbtree=1 / bitrate=1601 / ratetol=1.0 / qcomp=0.60 / qpmin=10 / qpmax=51 / qpstep=4 / cplxblur=20.0 / qblur=0.5 / ip_ratio=1.40 / aq=1:1.00
Язык : English
Аудио #1
Идентификатор : 2
Формат : AC-3
Формат/Информация : Audio Coding 3
Расширение режима : CM (complete main)
Идентификатор кодека : A_AC3
Продолжительность : 1 ч. 38 м.
Вид битрейта : Постоянный
Битрейт : 192 Кбит/сек
Каналы : 2 канала
Расположение каналов : Front: L R
Частота : 48,0 КГц
Битовая глубина : 16 бит
Метод сжатия : С потерями
Размер потока : 135 Мбайт (10%)
Заголовок : AC3 2.0 192 kbps Дубляж, R5
Язык : Russian
Аудио #2
Идентификатор : 3
Формат : AC-3
Формат/Информация : Audio Coding 3
Расширение режима : CM (complete main)
Идентификатор кодека : A_AC3
Продолжительность : 1 ч. 38 м.
Вид битрейта : Постоянный
Битрейт : 192 Кбит/сек
Каналы : 2 канала
Расположение каналов : Front: L R
Частота : 48,0 КГц
Битовая глубина : 16 бит
Метод сжатия : С потерями
Размер потока : 135 Мбайт (10%)
Заголовок : Оригинал
Язык : English
Текст #1
Идентификатор : 4
Формат : UTF-8
Идентификатор кодека : S_TEXT/UTF8
Идентификатор кодека/Информация : UTF-8 Plain Text
Язык : Russian
Текст #2
Идентификатор : 5
Формат : UTF-8
Идентификатор кодека : S_TEXT/UTF8
Идентификатор кодека/Информация : UTF-8 Plain Text
Заголовок : Commentary
Язык : Russian
Текст #3
Идентификатор : 6
Формат : UTF-8
Идентификатор кодека : S_TEXT/UTF8
Идентификатор кодека/Информация : UTF-8 Plain Text
Язык : English



-
--История игрушек: Большой побег / Toy Story 3
«The Breakout Comedy Of The Summer»
-- Год выпуска: 2010
Мировая премьера: 12 июня 2010
Российская премьера: 17 июня 2010, «WDSSPR»
Дата выхода DVD: 26 октября 2010, «Уолт Дисней Компани СНГ»
Дата выхода Blu-Ray: 23 ноября 2010, «Уолт Дисней Компани СНГ»
Производство: США
Жанр: мультфильм, фэнтези, комедия, приключения, семейный
Продолжительность: 01:42:33
Перевод: Профессиональный (полное дублирование)
Режиссер: Ли Анкрич / Lee Unkrich
В ролях: Том Хэнкс, Тим Аллен, Джоан Кьюсак, Нед Битти, Дон Риклз, Майкл Китон, Уоллес Шоун, Джон Ратценбергер, Эстелль Харрис, Джон Моррис
Описание: Энди почти 18 лет, ему остаётся 3 дня до отправки в колледж, в то время как его игрушки, в том числе Вуди и Базз Лайтер, гадают о своём будущем.
Куда забросит их судьба? На чердак, на свалку или, может быть, в детский сад «Солнышко»?
События развиваются в самом неожиданном направлении, и приключения полюбившихся героев продолжаются!-IMDB | КиноПоиск-Источник/Качество: HDRip-AVC
Формат: MKV
Видео кодек: H.26x
Аудио кодек: AC3
Видео: 1024x576 (16:9), 23,976 кадр/сек, 1374 Кбит/сек, 0.097 bit/pixel
Аудио: AC3, 6 ch., 48 kHz, ~192.00 kbps (RUS)
Аудио #2: AC3, 2 ch., 48 kHz, ~192.00 kbps (ENG)
Субтитры: Русские, английские, украинские
Общее
Уникальный идентификатор : 170587656255042516841602804729112250010 (0x8055FCCEED17645E89EA733437AD469A)
Полное имя : C:\pirat.ca\Istoriya.Igrushek.Trilogy.HDRip.x264.potroks\Istoriya.Igrushek.3.2010.x264.potroks.mkv
Формат : Matroska
Версия формата : Version 2
Размер файла : 1,45 Гбайт
Продолжительность : 1 ч. 43 м.
Общий поток : 2016 Кбит/сек
Название фильма : -=POTROKS=-
Дата кодирования : UTC 2011-11-14 15:42:43
Программа кодирования : mkvmerge v4.9.1 ('Ich will') сборка от Jul 11 2011 23:53:15
Библиотека кодирования : libebml v1.2.1 + libmatroska v1.1.1
Видео
Идентификатор : 1
Формат : AVC
Формат/Информация : Advanced Video Codec
Профиль формата : [email protected]
Параметр CABAC формата : Да
Параметр ReFrames формата : 9 кадров
Идентификатор кодека : V_MPEG4/ISO/AVC
Продолжительность : 1 ч. 43 м.
Битрейт : 1374 Кбит/сек
Ширина : 1024 пикселя
Высота : 576 пикселей
Соотношение сторон : 16:9
Режим частоты кадров : Переменный
Частота кадров : 23,976 кадра/сек
Цветовое пространство : YUV
Субдискретизация насыщенности : 4:2:0
Битовая глубина : 8 бит
Тип развёртки : Прогрессивная
Бит/(Пиксели*Кадры) : 0.097
Размер потока : 985 Мбайт (66%)
Заголовок : Istoriya.Igrushek.3.2010.x264.potroks
Библиотека кодирования : x264 core 116 r2019M 9cc407d
Настройки программы : cabac=1 / ref=10 / deblock=1:-3:-3 / analyse=0x3:0x133 / me=umh / subme=10 / psy=1 / psy_rd=1.00:0.20 / mixed_ref=1 / me_range=32 / chroma_me=1 / trellis=2 / 8x8dct=1 / cqm=0 / deadzone=21,11 / fast_pskip=1 / chroma_qp_offset=-3 / threads=8 / sliced_threads=0 / nr=0 / decimate=1 / interlaced=0 / bluray_compat=0 / constrained_intra=0 / bframes=3 / b_pyramid=1 / b_adapt=2 / b_bias=0 / direct=3 / weightb=1 / open_gop=0 / weightp=2 / keyint=230 / keyint_min=23 / scenecut=40 / intra_refresh=0 / rc_lookahead=40 / rc=2pass / mbtree=1 / bitrate=1374 / ratetol=1.0 / qcomp=0.60 / qpmin=10 / qpmax=51 / qpstep=4 / cplxblur=20.0 / qblur=0.5 / ip_ratio=1.40 / aq=1:1.00
Язык : English
Аудио #1
Идентификатор : 2
Формат : AC-3
Формат/Информация : Audio Coding 3
Расширение режима : CM (complete main)
Идентификатор кодека : A_AC3
Продолжительность : 1 ч. 43 м.
Вид битрейта : Постоянный
Битрейт : 448 Кбит/сек
Каналы : 6 каналов
Расположение каналов : Front: L C R, Side: L R, LFE
Частота : 48,0 КГц
Битовая глубина : 16 бит
Метод сжатия : С потерями
Размер потока : 330 Мбайт (22%)
Заголовок : AC3 5.1 @ 448 kbps - Дублированный, Лицензия СЕЕ
Язык : Russian
Аудио #2
Идентификатор : 3
Формат : AC-3
Формат/Информация : Audio Coding 3
Расширение режима : CM (complete main)
Идентификатор кодека : A_AC3
Продолжительность : 1 ч. 43 м.
Вид битрейта : Постоянный
Битрейт : 192 Кбит/сек
Каналы : 2 канала
Расположение каналов : Front: L R
Частота : 48,0 КГц
Битовая глубина : 16 бит
Метод сжатия : С потерями
Размер потока : 142 Мбайт (10%)
Заголовок : Оригинал
Язык : English
Текст #1
Идентификатор : 4
Формат : UTF-8
Идентификатор кодека : S_TEXT/UTF8
Идентификатор кодека/Информация : UTF-8 Plain Text
Заголовок : Full
Язык : Russian
Текст #2
Идентификатор : 5
Формат : UTF-8
Идентификатор кодека : S_TEXT/UTF8
Идентификатор кодека/Информация : UTF-8 Plain Text
Заголовок : Full
Язык : Ukrainian
Текст #3
Идентификатор : 6
Формат : UTF-8
Идентификатор кодека : S_TEXT/UTF8
Идентификатор кодека/Информация : UTF-8 Plain Text
Заголовок : Full
Язык : English



Download / Скачать

Хотите скачать бесплатно? Зарегистрируйтесь на сайте (ссылка на регистрацию). Pirat.ca - самый быстрый торрент трекер в рунете!

Как скачивать  ·   Что такое торрент  ·   Рейтинг и ограничения

Mr.Levushka

Лоцман

Пост 24-Ноя-2011 22:17 (спустя 1 час 51 минута)

[Q] 

Спасибо!
[Профиль]  [ЛС] 

Luzhok

Легенда

Пост 25-Ноя-2011 02:49 (спустя 4 часа)

[Q] 

zyyx,
большое спасибо
[Профиль]  [ЛС] 

Пост 25-Ноя-2011 05:40 (спустя 2 часа 50 минут)

Топик был перенесен из форума Мультипликация в форум Зарубежные полнометражные мультфильмы

Sirota
 

yam672

Корсар

Пост 02-Июн-2012 15:04 (спустя 6 месяцев 7 дней)

[Q] 

спасибо! сын диск заездил, так теперь пусть смотрит в норм качестве
[Профиль]  [ЛС] 

Честер

Морской Волк

78

Пост 26-Фев-2013 11:44 (спустя 8 месяцев 23 дня)

[Q] 

[Профиль]  [ЛС] 

ELEN

Морской Волк

Пост 14-Мар-2013 16:33 (спустя 16 дней)

[Q] 

[Профиль]  [ЛС] 

MihaLexx

Морской Волк

Пост 02-Апр-2013 12:54 (спустя 18 дней)

[Q] 

беру все три
[Профиль]  [ЛС] 

drift12345

Лоцман

Пост 08-Апр-2013 18:50 (спустя 6 дней)

[Q] 

спасибо большое спасли
[Профиль]  [ЛС] 

stas-burn

Корсар

Пост 24-Дек-2013 12:28 (спустя 8 месяцев 15 дней)

[Q] 

Спасибо! !COOL! Супер!
[Профиль]  [ЛС] 

dronich74

Флибустьер

Пост 05-Янв-2014 16:37 (спустя 12 дней)

[Q] 

Спасибо! Автору респект!!!
[Профиль]  [ЛС] 

shoroh

Морской Волк

Пост 28-Апр-2016 13:47 (спустя 2 года 3 месяца)

[Q] 

Спасибо!!!
[Профиль]  [ЛС] 

shayhi79

Морской Волк

Пост 16-Сен-2016 13:06 (спустя 4 месяца 17 дней)

[Q] 

Спасибо!!! Автору респект!!!
[Профиль]  [ЛС] 
Показать сообщения:    
Ответить на тему

Текущее время: Сегодня 08:07

Часовой пояс: GMT + 4



Вы не можете начинать темы
Вы не можете отвечать на сообщения
Вы не можете редактировать свои сообщения
Вы не можете удалять свои сообщения
Вы не можете голосовать в опросах
Вы не можете прикреплять файлы к сообщениям
Вы не можете скачивать файлы

▼ Вниз