ML
     
  Уважаемый Гость!
Вы можете поддержать проект и зарегистрироваться у наших партнеров - онлайн-стратегия MyLands. При регистрации в игре Вы получите код, который сможете активировать после регистрации на pirat.ca и получить 1000 дублонов.

Ваш код:
e93cd9e43017f251127f220889864c05934e61c6
 
     

Ромео с обочины / Roadside Romeo (Джугал Хансрадж / Jugal Hansraj) [2008 г., мелодрама, мюзикл, комедия, семейный, DVDRip] (MVO)

Ответить на тему
 
Автор
Сообщение

Пост 26-Ноя-2011 02:34

[Q] 

Sirota

Легенда

Ромео с обочины / Roadside Romeo Год выпуска: 2008
Мировая премьера: 23 октября 2008
Дата выхода DVD: 1 декабря 2009, «ВС трейд»
Производство: США, Индия, The Walt Disney Company
Жанр: мелодрама, мюзикл, комедия, семейный
Продолжительность: 01:32:58
Перевод: профессиональный (многоголосый, закадровый)
Режиссер: Джугал Хансрадж / Jugal Hansraj
В ролях: Саиф Али Кхан
Карина Капур
Джавед Джеффри
Враджеш Хирджи
Танааз Куррим
Суреш Менон
Kiku Sharda
Санджай Мишра
Описание: Это история Ромео, история о том, как домашний Ромео стал беспризорным Ромео. Пса, который жил как бог. У него был особняк, автомобиль, семья, для которой он был любимым животным. Но семья уехала и оставила его на бедных улицах Мумбаи. И нужно было выживать, оказываясь всякий раз в ситуациях, о которых он раньше даже и не подозревал.
Доп. информация: сценарий Джугал Хансрадж
продюсер Адитья Чопра, Яш Чопра, Swaratmika Mishra
оператор Anshul Chobey
композитор Салим Мерчант, Сулеман Мерчант
монтаж Ариф Ахмед
IMDB, КиноПоиск
Источник/Качество: DVDRip
Формат: AVI
Видео кодек: XviD
Аудио кодек: AC3
Видео: 720x304 (2.37:1), 23.976 fps, XviD build 50 ~1980 kbps avg, 0.38 bit/pixel
Аудио: 48 kHz, AC3 Dolby Digital, 3/2 (L,C,R,l,r) + LFE ch, ~256.00 kbps avg
Субтитры: нет
General
Format : AVI
Format/Info : Audio Video Interleave
File size : 1.46 GiB
Duration : 1h 32mn
Overall bit rate : 2 248 Kbps
Writing application : Lavf52.33.0
Original source form/Name : DVD_VOLUME
Video #0
ID : 0
Format : MPEG-4 Visual
Format profile : [email protected]
Format settings, BVOP : No
Format settings, QPel : No
Format settings, GMC : No warppoints
Format settings, Matrix : Default (H.263)
Codec ID : XVID
Codec ID/Hint : XviD
Duration : 1h 32mn
Bit rate : 1 981 Kbps
Width : 720 pixels
Height : 304 pixels
Display aspect ratio : 2.35:1
Frame rate : 23.976 fps
Resolution : 24 bits
Colorimetry : 4:2:0
Scan type : Progressive
Bits/(Pixel*Frame) : 0.377
Stream size : 1.29 GiB (88%)
Writing library : XviD 1.2.1 (UTC 2008-12-04)
Audio #1
ID : 1
Format : AC-3
Format/Info : Audio Coding 3
Codec ID : 2000
Duration : 1h 32mn
Bit rate mode : Constant
Bit rate : 256 Kbps
Channel(s) : 6 channels
Channel positions : Front: L C R, Surround: L R, LFE
Sampling rate : 48.0 KHz
Stream size : 170 MiB (11%)
Alignment : Aligned on interleaves
Interleave, duration : 32 ms (0.77 video frame)
Interleave, preload duration : 32 ms







Download / Скачать

Хотите скачать бесплатно? Зарегистрируйтесь на сайте (ссылка на регистрацию). Pirat.ca - самый быстрый торрент трекер в рунете!

Как скачивать  ·   Что такое торрент  ·   Рейтинг и ограничения

Пост 26-Ноя-2011 03:23 (спустя 49 минут)

Топик был перенесен из форума Мультипликация в форум Зарубежные полнометражные мультфильмы

zyyx
 

CHARLI2236

1089

Пост 30-Окт-2012 13:31 (спустя 11 месяцев 4 дня)

[Q] 

спс

_________________
[Профиль]  [ЛС] 

black kat

Лоцман

Пост 08-Июл-2013 14:00 (спустя 8 месяцев 9 дней)

[Q] 

СПАСИБО!!!!!!!!!!!!!
[Профиль]  [ЛС] 
Показать сообщения:    
Ответить на тему

Текущее время: Сегодня 04:29

Часовой пояс: GMT + 4



Вы не можете начинать темы
Вы не можете отвечать на сообщения
Вы не можете редактировать свои сообщения
Вы не можете удалять свои сообщения
Вы не можете голосовать в опросах
Вы не можете прикреплять файлы к сообщениям
Вы не можете скачивать файлы

▼ Вниз