ML
     
  Уважаемый Гость!
Вы можете поддержать проект и зарегистрироваться у наших партнеров - онлайн-стратегия MyLands. При регистрации в игре Вы получите код, который сможете активировать после регистрации на pirat.ca и получить 1000 дублонов.

Ваш код:
c89b4b6523eaac3173e9a9c062ac1a19db575961
 
     

Ослепительный Барри и червяки диско / Disco ormene (Томас Борч Нилсен / Thomas Borch Nilsen) [2008 г., мюзикл, комедия, семейный, HDRip] (Dub)

Ответить на тему
 
Автор
Сообщение

Пост 26-Ноя-2011 03:17

[Q] 

Sirota

Легенда

Ослепительный Барри и червяки диско / Disco ormene Год выпуска: 2008
Мировая премьера: 7 сентября 2008
Российская премьера: 10 июня 2010, «Art Pictures»
Дата выхода DVD: 15 июля 2010, «Флагман-Трейд»
Производство: Германия, Дания
Жанр: мюзикл, комедия, семейный
Продолжительность: 01:18:34
Перевод: профессиональный (полное дублирование) лицензия
Автор(ы) перевода: Алексей Чумаков, Юлия Ковальчук, Александр Иванов, Ирина Савина, Ольга Кузнецова
Режиссер: Томас Борч Нилсен / Thomas Borch Nilsen
В ролях: Питер Фродин
Трине Дюрхольм
Ларс Хьортшо
Троэльс Любю
Хелле Доллерис
Бирте Нойманн
Петер Хессе Овергаард
Хеннинг Енсен
Олаф Нилсен
Ким Хэйген Дженсен
Описание: Фильм о земляном червяке по имени Барри, который сыт по горло тем, что он червяк (звено в пищевой цепи). Тоска его продолжается до тех пор, пока он случайно не находит старую запись с музыкой диско. Так у Барри начинается новая, захватывающая и наполненная смыслом жизнь. Теперь его миссия — создать самую великую диско группу в мире. Он называет ее «Сияющий Барри И Червяки Диско», Барри — вокалист и клавишник, Тито — бас-гитарист, Глория — вокал, Джимми — гитарист и Донна — барабанщица. Они сталкиваются со многими проблемами и приключениями, их даже ловят как наживку, когда они едут на ежегодный фестиваль песни, чтобы принять в нем участие.
Доп. информация: сценарий Мортен Дрэгстед
продюсер Нина Кроун, Карен Бамбак, Майкл Флейчер,
композитор Йёрг Лемберг
художник Тор Рекс Андерсен, Дэниэл Силверфелд
монтаж Керстен Скайтт
IMDB, КиноПоиск
Источник/Качество: HDRip [BDRip 1080]
Формат: AVI
Видео кодек: XviD
Аудио кодек: AC3
Видео: 720x304 (2.37:1), 25 fps, XviD build 47 ~1798 kbps avg, 0.33 bit/pixel
Аудио: Russian 48 kHz, AC3 Dolby Digital, 3/2 (L,C,R,l,r) + LFE ch, ~448.00 kbps avg
Аудио #2: English 48 kHz, AC3 Dolby Digital, 3/2 (L,C,R,l,r) + LFE ch, ~448.00 kbps avg
Субтитры: нет
General
Format : AVI
Format/Info : Audio Video Interleave
File size : 1.43 GiB
Duration : 1h 15mn
Overall bit rate : 2 710 Kbps
Writing application : VirtualDubMod 1.5.10.2 (build 2540/release)
Writing library : VirtualDubMod build 2540/release
Video #0
ID : 0
Format : MPEG-4 Visual
Format profile : [email protected]
Format settings, BVOP : Yes
Format settings, QPel : No
Format settings, GMC : No warppoints
Format settings, Matrix : Default (H.263)
Codec ID : XVID
Codec ID/Hint : XviD
Duration : 1h 15mn
Bit rate : 1 800 Kbps
Width : 720 pixels
Height : 304 pixels
Display aspect ratio : 2.35:1
Frame rate : 25.000 fps
Resolution : 24 bits
Colorimetry : 4:2:0
Scan type : Progressive
Bits/(Pixel*Frame) : 0.329
Stream size : 972 MiB (66%)
Writing library : XviD 1.2.0.dev47 (UTC 2006-11-01)
Audio #1
ID : 1
Format : AC-3
Format/Info : Audio Coding 3
Codec ID : 2000
Duration : 1h 15mn
Bit rate mode : Constant
Bit rate : 448 Kbps
Channel(s) : 6 channels
Channel positions : Front: L C R, Surround: L R, LFE
Sampling rate : 48.0 KHz
Stream size : 242 MiB (17%)
Alignment : Split accross interleaves
Interleave, duration : 40 ms (1.00 video frame)
Interleave, preload duration : 500 ms
Audio #2
ID : 2
Format : AC-3
Format/Info : Audio Coding 3
Codec ID : 2000
Duration : 1h 15mn
Bit rate mode : Constant
Bit rate : 448 Kbps
Channel(s) : 6 channels
Channel positions : Front: L C R, Surround: L R, LFE
Sampling rate : 48.0 KHz
Stream size : 242 MiB (17%)
Alignment : Split accross interleaves
Interleave, duration : 40 ms (1.00 video frame)
Interleave, preload duration : 500 ms







Download / Скачать

Хотите скачать бесплатно? Зарегистрируйтесь на сайте (ссылка на регистрацию). Pirat.ca - самый быстрый торрент трекер в рунете!

Как скачивать  ·   Что такое торрент  ·   Рейтинг и ограничения

Пост 26-Ноя-2011 03:23 (спустя 6 минут)

Топик был перенесен из форума Мультипликация в форум Зарубежные полнометражные мультфильмы

zyyx
 

CHARLI2236

1098

Пост 30-Окт-2012 13:21 (спустя 11 месяцев 4 дня)

[Q] 

спс

_________________
[Профиль]  [ЛС] 
Показать сообщения:    
Ответить на тему

Текущее время: Сегодня 22:30

Часовой пояс: GMT + 4



Вы не можете начинать темы
Вы не можете отвечать на сообщения
Вы не можете редактировать свои сообщения
Вы не можете удалять свои сообщения
Вы не можете голосовать в опросах
Вы не можете прикреплять файлы к сообщениям
Вы не можете скачивать файлы

▼ Вниз