ML
     
  Уважаемый Гость!
Вы можете поддержать проект и зарегистрироваться у наших партнеров - онлайн-стратегия MyLands. При регистрации в игре Вы получите код, который сможете активировать после регистрации на pirat.ca и получить 1000 дублонов.

Ваш код:
6f9ab67d502902cc72a06c406977ddb589b7f39d
 
     

Гномео и Джульетта / Gnomeo & Juliet (Келли Эсбёри / Kelly Asbury) [2011 г., фэнтези, мелодрама, комедия, приключения, семейный, BDRip] (Dub)

Ответить на тему
 
Автор
Сообщение

Пост 26-Ноя-2011 03:50

[Q] 

Sirota

Легенда

Гномео и Джульетта / Gnomeo & Juliet Год выпуска: 2011
Мировая премьера: 23 января 2011
Российская премьера: 17 февраля 2011, «West»
Дата выхода DVD: 24 мая 2011, «West Video»
Производство: США Великобритания
Жанр: фэнтези, мелодрама, комедия, приключения, семейный
Продолжительность: 01:23:51
Перевод: профессиональный (полное дублирование) лицензия
Автор(ы) перевода: Диомид Виноградов, Михаил Лукашов, Прохор Чеховской, Лина Иванова, Ирина Савина
Режиссер: Келли Эсбёри / Kelly Asbury
В ролях: Джеймс МакЭвой
Эмили Блант
Эшли Дженсен
Майкл Кейн
Мэтт Лукас
Джим Каммингс
Мэгги Смит
Джейсон Стэтхэм
Оззи Осборн
Стивен Мерчант
Описание: Интерпретация пьесы Уильяма Шекспира, в которой противоборствуют семьи садовых гномов и гномов домашних.
Доп. информация: сценарий Роб Спрэклинг, Джон Р. Смит, Энди Райли,
продюсер Бэйкер Бладуорф, Дэвид Ферниш, Стив Хэмилтон Шоу,
композитор Крис П. Бэйкон, Джеймс Ньютон Ховард, Элтон Джон
художник Карен ДеДжонг, Эндрю Вудхаус
монтаж Катрин Эппл
Сэмпл, IMDB, КиноПоиск
Источник/Качество: BDRip
Формат: AVI
Видео кодек: XviD
Аудио кодек: AC3
Видео: 704x384 (1.83:1), 23.976 fps, XviD build 63 ~2093 kbps avg, 0.32 bit/pixel
Аудио: 48 kHz, AC3 Dolby Digital, 3/2 (L,C,R,l,r) + LFE ch, ~384.00 kbps avg
Субтитры: нет
General
Format : AVI
Format/Info : Audio Video Interleave
File size : 1.46 GiB
Duration : 1h 23mn
Overall bit rate : 2 487 Kbps
Writing application : VirtualDubMod 1.5.10.3 (build 2550/release)
Writing library : VirtualDubMod build 2550/release
Video #0
ID : 0
Format : MPEG-4 Visual
Format profile : [email protected]
Format settings, BVOP : Yes
Format settings, QPel : No
Format settings, GMC : No warppoints
Format settings, Matrix : Custom
Codec ID : XVID
Codec ID/Hint : XviD
Duration : 1h 23mn
Bit rate : 2 094 Kbps
Width : 704 pixels
Height : 384 pixels
Display aspect ratio : 16:9
Frame rate : 23.976 fps
Resolution : 24 bits
Colorimetry : 4:2:0
Scan type : Progressive
Bits/(Pixel*Frame) : 0.323
Stream size : 1.23 GiB (84%)
Writing library : XviD 63
Audio #1
ID : 1
Format : AC-3
Format/Info : Audio Coding 3
Codec ID : 2000
Duration : 1h 23mn
Bit rate mode : Constant
Bit rate : 384 Kbps
Channel(s) : 6 channels
Channel positions : Front: L C R, Surround: L R, LFE
Sampling rate : 48.0 KHz
Stream size : 230 MiB (15%)
Alignment : Split accross interleaves
Interleave, duration : 42 ms (1.00 video frame)
Interleave, preload duration : 500 ms







Download / Скачать

Хотите скачать бесплатно? Зарегистрируйтесь на сайте (ссылка на регистрацию). Pirat.ca - самый быстрый торрент трекер в рунете!

Как скачивать  ·   Что такое торрент  ·   Рейтинг и ограничения

Пост 26-Ноя-2011 10:13 (спустя 6 часов)

Топик был перенесен из форума Мультипликация в форум Новинки (HD|DVD|BD|TV|SAT|PDTV| - Rips)

zyyx
 

Колямба

Морской Волк

Пост 16-Янв-2012 01:21 (спустя 1 месяц 19 дней)

[Q] 

спасибо
[Профиль]  [ЛС] 

pryanik_1503

Лоцман

Пост 28-Фев-2012 00:08 (спустя 1 месяц 11 дней)

[Q] 

Спасибо, мультик совсем детский, но раз глянуть можно
[Профиль]  [ЛС] 

vik_kk

Штурман

Пост 21-Мар-2012 14:56 (спустя 22 дня)

[Q] 

Спасибо!!!
[Профиль]  [ЛС] 

CHARLI2236

1089

Пост 30-Окт-2012 12:59 (спустя 7 месяцев 8 дней)

[Q] 

благодарствую

_________________
[Профиль]  [ЛС] 

diozzy13

Корсар

Пост 06-Янв-2013 02:03 (спустя 2 месяца 6 дней)

[Q] 


_________________
-Who is Zed?
-Zed is dead,baby.
[Профиль]  [ЛС] 

coderzona

Штурман

Пост 11-Янв-2014 09:43 (спустя 1 год)

[Q] 

Отличный мульт)
[Профиль]  [ЛС] 

FreshMeat

Морской Волк

Пост 13-Мар-2014 20:35 (спустя 2 месяца 2 дня)

[Q] 

спасибо Лови бочку

_________________
[Профиль]  [ЛС] 
Показать сообщения:    
Ответить на тему

Текущее время: Сегодня 16:30

Часовой пояс: GMT + 4



Вы не можете начинать темы
Вы не можете отвечать на сообщения
Вы не можете редактировать свои сообщения
Вы не можете удалять свои сообщения
Вы не можете голосовать в опросах
Вы не можете прикреплять файлы к сообщениям
Вы не можете скачивать файлы

▼ Вниз