ML
     
  Уважаемый Гость!
Вы можете поддержать проект и зарегистрироваться у наших партнеров - онлайн-стратегия MyLands. При регистрации в игре Вы получите код, который сможете активировать после регистрации на pirat.ca и получить 1000 дублонов.

Ваш код:
47bfc18b89c74e4ae0d974e9b6943639e2bff08e
 
     

Ферма в прериях / Не бей копытом / Home On The Range (Уилл Финн/Will Finn/, Джон Сэнфорд/John Sanford) [2004 г., комедия, приключения, семейный, вестерн, музыка, DVDRip] (Dub)

Ответить на тему
 
Автор
Сообщение

Пост 26-Ноя-2011 09:53

[Q] 

Sirota

Легенда

Ферма в прериях / Не бей копытом / Home On The Range Год выпуска: 2004
Мировая премьера: 21 марта 2004
Российская премьера: 28 октября 2004, «Каскад»
Дата выхода DVD: 5 октября 2009, «ВС трейд»
Производство: США
Жанр: комедия, приключения, семейный, вестерн, музыка
Продолжительность: 01:13:07
Перевод: профессиональный (полное дублирование) лицензия
Автор(ы) перевода: Вадим Никитин, Мария Кузнецова, Ирина Коновалова, Валерий Захарьев, Людмила Безуглая
Режиссер: Уилл Финн/Will Finn/, Джон Сэнфорд/John Sanford/
В ролях: Дж. У. Бейли
Розанна
Бобби Блок
Стив Бушеми
Кэрол Кук
Чарли Делл
Джуди Денч
Чарльз Дэннис
Маршалл Эфрон
Джо Флаэрти
Описание: Жизнь на ферме проста и привольна. Хозяева и питомцы живут душа в душу, поют песни и веселяться. Но внезапно этой идиллии приходит конец. На смену обанкротившимся владельцам фермы приходит безжалостный делец, желающий продать землю и избавиться от животных.
Естественно, это не устраивает привыкших к сладкой жизни четвероногих и пернатых обитателей. Начинается потрясающе смешная «партизанская война». Руководителями бунта выступают конь Бак и три коровы-непоседы, решившие пойти на все, чтобы спасти ферму от разорения…
Доп. информация: сценарий Майкл Лакер, Ширли Пирс, Уилл Финн,
продюсер Элис Дьюи, Дэвид Дж. Стейнберг
композитор Алан Менкен
художник Дэвид Катлер
монтаж Х. Ли Петерсон
IMDB, КиноПоиск
Источник/Качество: DVDRip
Формат: AVI
Видео кодек: XviD
Аудио кодек: AC3
Видео: 720x432 (1.67:1), 25 fps, XviD build 47 ~2282 kbps avg, 0.29 bit/pixel
Аудио: 48 kHz, AC3 Dolby Digital, 3/2 (L,C,R,l,r) + LFE ch, ~384.00 kbps avg
Субтитры: нет
General
Format : AVI
Format/Info : Audio Video Interleave
File size : 1.37 GiB
Duration : 1h 13mn
Overall bit rate : 2 673 Kbps
Writing application : VirtualDubMod 1.5.4.1 (build 2178/release)
Writing library : VirtualDubMod build 2178/release
Video #0
ID : 0
Format : MPEG-4 Visual
Format profile : [email protected]
Format settings, BVOP : Yes
Format settings, QPel : No
Format settings, GMC : No warppoints
Format settings, Matrix : Custom
Codec ID : XVID
Codec ID/Hint : XviD
Duration : 1h 13mn
Bit rate : 2 282 Kbps
Width : 720 pixels
Height : 432 pixels
Display aspect ratio : 1.667
Frame rate : 25.000 fps
Resolution : 24 bits
Colorimetry : 4:2:0
Scan type : Progressive
Bits/(Pixel*Frame) : 0.294
Stream size : 1.17 GiB (85%)
Writing library : XviD 1.2.0.dev47 (UTC 2006-11-01)
Audio #1
ID : 1
Format : AC-3
Format/Info : Audio Coding 3
Codec ID : 2000
Duration : 1h 13mn
Bit rate mode : Constant
Bit rate : 384 Kbps
Channel(s) : 6 channels
Channel positions : Front: L C R, Surround: L R, LFE
Sampling rate : 48.0 KHz
Stream size : 201 MiB (14%)
Alignment : Split accross interleaves
Interleave, duration : 96 ms (2.40 video frames)
Interleave, preload duration : 96 ms
Language : Russian






-
-

-
-
Download / Скачать

Хотите скачать бесплатно? Зарегистрируйтесь на сайте (ссылка на регистрацию). Pirat.ca - самый быстрый торрент трекер в рунете!

Как скачивать  ·   Что такое торрент  ·   Рейтинг и ограничения

Пост 26-Ноя-2011 10:15 (спустя 21 минута)

Топик был перенесен из форума Мультипликация в форум Зарубежные полнометражные мультфильмы

zyyx
 

CHARLI2236

1097

Пост 30-Окт-2012 13:41 (спустя 11 месяцев 4 дня)

[Q] 

спасибо

_________________
[Профиль]  [ЛС] 
Показать сообщения:    
Ответить на тему

Текущее время: Сегодня 07:00

Часовой пояс: GMT + 4



Вы не можете начинать темы
Вы не можете отвечать на сообщения
Вы не можете редактировать свои сообщения
Вы не можете удалять свои сообщения
Вы не можете голосовать в опросах
Вы не можете прикреплять файлы к сообщениям
Вы не можете скачивать файлы

▼ Вниз