ML
     
  Уважаемый Гость!
Вы можете поддержать проект и зарегистрироваться у наших партнеров - онлайн-стратегия MyLands. При регистрации в игре Вы получите код, который сможете активировать после регистрации на pirat.ca и получить 1000 дублонов.

Ваш код:
8dcb839cf1b47e56d6dc42d17f26b3e4822e9aee
 
     

Рога и копыта / Barnyard (Стив Одекерк / Steve Oedekerk) [2006 г., мультфильм, комедия, семейный, HDTVRip] (Dub)

Ответить на тему
 
Автор
Сообщение

Пост 26-Ноя-2011 15:23

[Q] 

Sirota

Легенда

Рога и копыта / Barnyard Год выпуска: 2006
Мировая премьера: 4 августа 2006
Российская премьера: 23 ноября 2006, «UIP»
Дата выхода DVD: 1 декабря 2011, «Новый Диск»
Производство: США Германия
Жанр: мультфильм, комедия, семейный
Продолжительность: 01:25:56
Перевод: профессиональный (полное дублирование) лицензия
Автор(ы) перевода: Алексей Иващенко, Любовь Германова, Дальвин Щербаков, Олег Куценко, Ольга Кузнецова
Режиссер: Стив Одекерк / Steve Oedekerk
В ролях: Кевин Джеймс
Кортни Кокс
Сэм Эллиотт
Дэнни Гловер
Ванда Сайкес
Энди МакДауэлл
Дэвид Кокнер
Джефф Гарсиа
Кэм Кларк
Роб Полсен
Описание: Отвязный бычок Отис любит петь, танцевать и всячески подшучивать над людьми. В отличие от своего отца Бена, уважаемого патриарха скотного двора, а также старого и мудрого мула Майлса, Отис не заботится о том, чтобы никто не узнал о «человеческих» талантах животных. Но когда легкомысленный Отис ощутил на своих плечах нелегкое бремя ответственности, он сумел собрать все свое мужество, чтобы взять на себя функции лидера…
Доп. информация: продюсер Пэм Мэрсден, Пол Маршал, Стив Одекерк,
композитор Джон Дебни
художник Филип А. Круден
монтаж Пол Д. Калдер, Билли Вебер
бюджет $51 000 000
сборы в США $72 637 803
сборы в мире + $43 272 126 = $115 909 929
сборы в России $2 702 398
DVD в США $57 820 124

IMDB, КиноПоиск
Источник/Качество: HDTVRip
Формат: AVI
Видео кодек: XviD
Аудио кодек: AC3
Видео: 688x384 (1.79:1), 25 fps, XviD build 61 ~1971 kbps avg, 0.30 bit/pixel
Аудио: 48 kHz, AC3 Dolby Digital, 3/2 (L,C,R,l,r) + LFE ch, ~448.00 kbps avg
Субтитры: нет
General
Format : AVI
Format/Info : Audio Video Interleave
File size : 1.46 GiB
Duration : 1h 25mn
Overall bit rate : 2 429 Kbps
Writing application : VirtualDubMod 1.5.10.3 (build 2550/release)
Writing library : VirtualDubMod build 2550/release
Video #0
ID : 0
Format : MPEG-4 Visual
Format profile : [email protected]
Format settings, BVOP : Yes
Format settings, QPel : No
Format settings, GMC : No warppoints
Format settings, Matrix : Default (MPEG)
Codec ID : XVID
Codec ID/Hint : XviD
Duration : 1h 25mn
Bit rate : 1 972 Kbps
Width : 688 pixels
Height : 384 pixels
Display aspect ratio : 16:9
Frame rate : 25.000 fps
Resolution : 24 bits
Colorimetry : 4:2:0
Scan type : Progressive
Bits/(Pixel*Frame) : 0.299
Stream size : 1.18 GiB (81%)
Writing library : XviD 61
Audio #1
ID : 1
Format : AC-3
Format/Info : Audio Coding 3
Codec ID : 2000
Duration : 1h 25mn
Bit rate mode : Constant
Bit rate : 448 Kbps
Channel(s) : 6 channels
Channel positions : Front: L C R, Surround: L R, LFE
Sampling rate : 48.0 KHz
Video delay : 1s 0ms
Stream size : 275 MiB (18%)
Alignment : Split accross interleaves
Interleave, duration : 40 ms (1.00 video frame)
Interleave, preload duration : 500 ms







Download / Скачать

Хотите скачать бесплатно? Зарегистрируйтесь на сайте (ссылка на регистрацию). Pirat.ca - самый быстрый торрент трекер в рунете!

Как скачивать  ·   Что такое торрент  ·   Рейтинг и ограничения

Пост 26-Ноя-2011 16:21 (спустя 57 минут)

Топик был перенесен из форума Мультипликация в форум Зарубежные полнометражные мультфильмы

zyyx
 

Воффка

Морской Волк

Пост 15-Дек-2011 17:46 (спустя 19 дней)

[Q] 

Спасибо

_________________
-= Водка, шлюхи, Death Metal!!!=-
[Профиль]  [ЛС] 

CHARLI2236

1098

Пост 30-Окт-2012 13:30 (спустя 10 месяцев 14 дней)

[Q] 

спасибо

_________________
[Профиль]  [ЛС] 

Alien2000

Легенда

Пост 03-Янв-2015 14:53 (спустя 2 года 2 месяца)

[Q] 

Лови бочку
[Профиль]  [ЛС] 
Показать сообщения:    
Ответить на тему

Текущее время: Сегодня 04:15

Часовой пояс: GMT + 4



Вы не можете начинать темы
Вы не можете отвечать на сообщения
Вы не можете редактировать свои сообщения
Вы не можете удалять свои сообщения
Вы не можете голосовать в опросах
Вы не можете прикреплять файлы к сообщениям
Вы не можете скачивать файлы

▼ Вниз