ML
     
  Уважаемый Гость!
Вы можете поддержать проект и зарегистрироваться у наших партнеров - онлайн-стратегия MyLands. При регистрации в игре Вы получите код, который сможете активировать после регистрации на pirat.ca и получить 1000 дублонов.

Ваш код:
c3360d664ceb84802c84b88ed062a5d134e2ba97
 
     

Труп невесты / Corpse Bride (Тим Бёртон / Tim Burton) [2005 г., фэнтези, мелодрама, музыка, семейный, BDRip] (Dub)

Ответить на тему
 
Автор
Сообщение

Пост 26-Ноя-2011 16:56

[Q] 

Sirota

Легенда

Труп невесты / Corpse Bride Год выпуска: 2005
Мировая премьера: 7 сентября 2005
Российская премьера: 26 января 2006, «Каро-Премьер»
Дата выхода DVD: 17 марта 2011, «CP-Digital»
Производство: США, Великобритания
Жанр: фэнтези, мелодрама, музыка, семейный
Продолжительность: 01:17:11
Перевод: профессиональный (полное дублирование) + оригинал
Автор(ы) перевода: Илья Бледный, Жанна Никонова, Ольга Голованова, Лариса Некипелова, Людмила Гнилова
Режиссер: Тим Бёртон / Tim Burton
В ролях: Джонни Депп
Хелена Бонем Картер
Эмили Уотсон
Трейси Уллмен
Пол Уайтхаус
Джоанна Ламли
Альберт Финни
Ричард Э. Грант
Кристофер Ли
Майкл Гоф
Описание: Действие развивается в европейской деревушке XIX века. Главного героя — молодого человека Виктора — силы тьмы утаскивают в преисподнюю и женят там на таинственном Трупе Невесты, в то время как его настоящая невеста Виктория ожидает своего жениха в мире живых. Несмотря на то, что проживание в Царстве мертвых оказывается много интересней, чем его привычный викторианский образ жизни, Виктор понимает, что свою единственную любовь он не променяет ни на что ни в одном из альтернативных миров…
Доп. информация: сценарий Джон Огаст, Памела Петтлер, Кэролин Томпсон
продюсер Эллисон Эббейт, Джеффри Ауэрбах, Тим Бёртон,
оператор Малкольм Хэдли, Пит Козачик
композитор Дэнни Элфман
художник Алекс Макдауэлл, Нельсон Лоури
монтаж Крис Лебензон, Джонатан Лукас
бюджет $40 000 000
сборы в США $53 359 111
сборы в мире + $63 741 230 = $117 100 341
сборы в России $372 502

IMDB, КиноПоиск
Источник/Качество: BDRip (Blu-Ray/ 1080p)
Формат: AVI
Видео кодек: XviD
Аудио кодек: AC3
Видео: 704x400 (1.76:1), 23.976 fps, XviD build 63 ~1851 kbps avg, 0.27 bit/pixel
Аудио: Rus 48 kHz, AC3 Dolby Digital, 3/2 (L,C,R,l,r) + LFE ch, ~384.00 kbps avg
Аудио #2: Eng 48 kHz, AC3 Dolby Digital, 3/2 (L,C,R,l,r) + LFE ch, ~448.00 kbps avg
Субтитры: нет
Оскар, 2006 год
Номинации (1):
Лучший анимационный фильм
Сатурн, 2006 год
Победитель (1):
Лучший анимационный фильм
Венецианский кинофестиваль, 2005 год
Победитель (1):
Приз «Future Film Festival Digital Award»
General
Format : AVI
Format/Info : Audio Video Interleave
File size : 1.45 GiB
Duration : 1h 17mn
Overall bit rate : 2 698 Kbps
Movie name : Труп невесты / Corpse Bride (2005) BDRip
Director : MOSFET
Writing application : VirtualDubMod 1.5.10.2 (build 2542/release)
Copyright : http://forum.hqclub.net
Comment : 13.05.11
Video #0
ID : 0
Format : MPEG-4 Visual
Format profile : [email protected]
Format settings, BVOP : Yes
Format settings, QPel : No
Format settings, GMC : No warppoints
Format settings, Matrix : Custom
Codec ID : XVID
Codec ID/Hint : XviD
Duration : 1h 17mn
Bit rate : 1 852 Kbps
Width : 704 pixels
Height : 400 pixels
Display aspect ratio : 16:9
Frame rate : 23.976 fps
Resolution : 24 bits
Colorimetry : 4:2:0
Scan type : Progressive
Bits/(Pixel*Frame) : 0.274
Stream size : 1 022 MiB (69%)
Writing library : XviD 63
Audio #1
ID : 1
Format : AC-3
Format/Info : Audio Coding 3
Codec ID : 2000
Duration : 1h 17mn
Bit rate mode : Constant
Bit rate : 384 Kbps
Channel(s) : 6 channels
Channel positions : Front: L C R, Surround: L R, LFE
Sampling rate : 48.0 KHz
Stream size : 212 MiB (14%)
Alignment : Split accross interleaves
Interleave, duration : 42 ms (1.00 video frame)
Interleave, preload duration : 500 ms
Audio #2
ID : 2
Format : AC-3
Format/Info : Audio Coding 3
Codec ID : 2000
Duration : 1h 17mn
Bit rate mode : Constant
Bit rate : 448 Kbps
Channel(s) : 6 channels
Channel positions : Front: L C R, Surround: L R, LFE
Sampling rate : 48.0 KHz
Stream size : 247 MiB (17%)
Alignment : Split accross interleaves
Interleave, duration : 42 ms (1.00 video frame)
Interleave, preload duration : 500 ms







-
-

-
-
Download / Скачать

Хотите скачать бесплатно? Зарегистрируйтесь на сайте (ссылка на регистрацию). Pirat.ca - самый быстрый торрент трекер в рунете!

Как скачивать  ·   Что такое торрент  ·   Рейтинг и ограничения

Пост 26-Ноя-2011 18:52 (спустя 1 час 56 минут)

Топик был перенесен из форума Мультипликация в форум Зарубежные полнометражные мультфильмы

zyyx
 

Фаза

Шкипер

Пост 28-Мар-2012 18:35 (спустя 4 месяца 2 дня)

[Q] 

Спасибо за мульт! Это классика Тима Бертона..))
[Профиль]  [ЛС] 

E-RTY

Флибустьер

30

Пост 24-Июн-2012 14:12 (спустя 2 месяца 26 дней)

[Q] 

Вот энто вещь!спс большое аффтору за мульт!
[Профиль]  [ЛС] 

Анна 341662

Корсар

11

Пост 19-Авг-2012 22:31 (спустя 1 месяц 25 дней)

[Q] 

[Профиль]  [ЛС] 

Сергей1

Морской Волк

Пост 09-Сен-2012 21:56 (спустя 20 дней)

[Q] 

Хороший мульт, даже жена смотрела))))
[Профиль]  [ЛС] 

Дудинский

Шкипер

Пост 13-Сен-2012 21:38 (спустя 3 дня)

[Q] 

[Профиль]  [ЛС] 

shepyura

Штурман

Пост 25-Сен-2012 13:16 (спустя 11 дней)

[Q] 

[Профиль]  [ЛС] 

CHARLI2236

1098

Пост 30-Окт-2012 13:39 (спустя 1 месяц 5 дней)

[Q] 

спасибо

_________________
[Профиль]  [ЛС] 
Показать сообщения:    
Ответить на тему

Текущее время: Сегодня 10:03

Часовой пояс: GMT + 4



Вы не можете начинать темы
Вы не можете отвечать на сообщения
Вы не можете редактировать свои сообщения
Вы не можете удалять свои сообщения
Вы не можете голосовать в опросах
Вы не можете прикреплять файлы к сообщениям
Вы не можете скачивать файлы

▼ Вниз