ML
     
  Уважаемый Гость!
Вы можете поддержать проект и зарегистрироваться у наших партнеров - онлайн-стратегия MyLands. При регистрации в игре Вы получите код, который сможете активировать после регистрации на pirat.ca и получить 1000 дублонов.

Ваш код:
8b752b428cf60a012c159dcae592cd1392170115
 
     

Охотники на драконов / Chasseurs de dragons (Гийом Ивернель, Артур Квак / Guillaume Ivernel, Arthur Qwak) [2008 г., фэнтези, приключения, семейный, BDRip] (Dub)

Ответить на тему
 
Автор
Сообщение

Пост 26-Ноя-2011 17:28

[Q] 

Sirota

Легенда

Охотники на драконов / Chasseurs de dragons Год выпуска: 2008
Мировая премьера: 26 марта 2008
Российская премьера: 20 марта 2008, «Люксор»
Дата выхода DVD: 24 октября 2008, «New Dream media»
Производство: Германия, Франция, Люксембург
Жанр: фэнтези, приключения, семейный
Продолжительность: 01:21:59
Перевод: профессиональный (полное дублирование)
Автор(ы) перевода: Андрей Ярославцев, Пётр Иващенко, Ольга Шорохова
Режиссер: Гийом Ивернель, Артур Квак / Guillaume Ivernel, Arthur Qwak
В ролях: Венсан Линдон
Патрик Тимсит
Филипп Наон
Аманда Лир
Мари Дрион
Джереми Превост
Жан-Марк Лентретьен
Джон Ди Маджио
Елиас Элиот
Джесс Харнелл
Описание: Этот прекрасный и затерянный мир — мириады маленьких солнечных островов, парящих в пространстве и соединенных между собой волшебными мостами. Жители этой доброй вселенной уже давно позабыли правило: «Съешь врага первым или он съест тебя». До тех пор, пока в этот мир не вторглись ужасные и ненасытные существа — Драконы!
Маленькая Зоуи взялась помочь своему дядюшке Лорду Арнольду избавить свой народ от злобных чудищ. Она, как ей казалось, нашла отличных помощников — отважных охотников на драконов, настоящих героев Гвиздо и Лин-Чу. На самом деле хитрый Гвиздо просто позарился на денежки Лорда Арнольда, и не стал разубеждать девчушку в своих способностях, чтобы оставаться рядом. Команда отправляется в очень опасное путешествие до самого края Вселенной, где обитает самый кровожадный монстр на Земле — ужасающий «Пожиратель».
Доп. информация: сценарий Фридерик Ленуар, Артур Квак
продюсер Филипп Делару, Тило Шайфферт, Клаус Бадельт,
композитор Клаус Бадельт
монтаж Солин Гийонно
бюджет €11 000 000
сборы в мире $10 565 255
сборы в России $1 756 500

IMDB, КиноПоиск
Источник/Качество: BDRip (источник: /Blu-Ray Remux/1080p)
Формат: AVI
Видео кодек: XviD
Аудио кодек: AC3
Видео: 720x400 (1.80:1), 23.976 fps, XviD build 50 ~2079 kbps avg, 0.30 bit/pixel
Аудио: 48 kHz, AC3 Dolby Digital, 3/2 (L,C,R,l,r) + LFE ch, ~448.00 kbps avg
Субтитры: нет
General
Format : AVI
Format/Info : Audio Video Interleave
File size : 1.45 GiB
Duration : 1h 21mn
Overall bit rate : 2 537 Kbps
Writing application : VirtualDubMod 1.5.10.2 (build 2542/release)
Writing library : VirtualDubMod build 2542/release
Video #0
ID : 0
Format : MPEG-4 Visual
Format profile : [email protected]
Format settings, BVOP : Yes
Format settings, QPel : No
Format settings, GMC : No warppoints
Format settings, Matrix : Default (MPEG)
Codec ID : XVID
Codec ID/Hint : XviD
Duration : 1h 21mn
Bit rate : 2 080 Kbps
Width : 720 pixels
Height : 400 pixels
Display aspect ratio : 16:9
Frame rate : 23.976 fps
Resolution : 24 bits
Colorimetry : 4:2:0
Scan type : Progressive
Bits/(Pixel*Frame) : 0.301
Stream size : 1.19 GiB (82%)
Writing library : XviD 1.2.1 (UTC 2008-12-04)
Audio #1
ID : 1
Format : AC-3
Format/Info : Audio Coding 3
Codec ID : 2000
Duration : 1h 21mn
Bit rate mode : Constant
Bit rate : 448 Kbps
Channel(s) : 6 channels
Channel positions : Front: L C R, Surround: L R, LFE
Sampling rate : 48.0 KHz
Stream size : 263 MiB (18%)
Alignment : Split accross interleaves
Interleave, duration : 42 ms (1.00 video frame)
Interleave, preload duration : 500 ms






Download / Скачать

Хотите скачать бесплатно? Зарегистрируйтесь на сайте (ссылка на регистрацию). Pirat.ca - самый быстрый торрент трекер в рунете!

Как скачивать  ·   Что такое торрент  ·   Рейтинг и ограничения

Пост 26-Ноя-2011 18:52 (спустя 1 час 23 минуты)

Топик был перенесен из форума Мультипликация в форум Зарубежные полнометражные мультфильмы

zyyx
 

Vlad__treker

Морской Волк

184

Пост 23-Дек-2011 00:10 (спустя 26 дней)

[Q] 

Sirota, спс за мульты оставайтесь на раздачах пожалуйста.

_________________
...:::Pirat.ca:::...
..:::The Best:::...
[Профиль]  [ЛС] 

CHARLI2236

1089

Пост 30-Окт-2012 13:22 (спустя 10 месяцев 7 дней)

[Q] 

спасибо

_________________
[Профиль]  [ЛС] 

Zolton

Шкипер

Пост 26-Фев-2013 23:56 (спустя 3 месяца 27 дней)

[Q] 

Спс
[Профиль]  [ЛС] 

Stamper

Лоцман

Пост 10-Мар-2013 14:43 (спустя 11 дней)

[Q] 

[Профиль]  [ЛС] 
Показать сообщения:    
Ответить на тему

Текущее время: Сегодня 06:18

Часовой пояс: GMT + 4



Вы не можете начинать темы
Вы не можете отвечать на сообщения
Вы не можете редактировать свои сообщения
Вы не можете удалять свои сообщения
Вы не можете голосовать в опросах
Вы не можете прикреплять файлы к сообщениям
Вы не можете скачивать файлы

▼ Вниз