ML
     
  Уважаемый Гость!
Вы можете поддержать проект и зарегистрироваться у наших партнеров - онлайн-стратегия MyLands. При регистрации в игре Вы получите код, который сможете активировать после регистрации на pirat.ca и получить 1000 дублонов.

Ваш код:
193c38d0130f05c24de871678ea3ac181461757d
 
     

Русалочка: Начало Истории Ариэль / The Little Mermaid: Ariel's Beginning (Пэгги Холмс / Peggy Holmes) [2008 г., фэнтези, сказка. приключения, семейный, DVDRip] (Dub)

Ответить на тему
 
Автор
Сообщение

Пост 26-Ноя-2011 18:18

[Q] 

Sirota

Легенда

Русалочка: Начало Истории Ариэль / The Little Mermaid: Ariel's Beginning Год выпуска: 2008
Мировая премьера: 26 августа 2008
Дата выхода DVD: 25 сентября 2008, «Buena Vista/Walt Disney»
Производство: США
Жанр: фэнтези, сказка. приключения, семейный
Продолжительность: 01:14:12
Перевод: профессиональный (полное дублирование)
Оригинальный аудиопоток: Английский
Режиссер: Пэгги Холмс / Peggy Holmes
В ролях: Джоди Бенсон
Сэмюэл Э. Райт
Джим Каммингс
Салли Филд
Parker Goris
Тара Стронг
Дженнифер Хейл
Грей ДеЛайл
Джефф Беннетт
Кэри Уолгрен
Описание: Представьте далекие времена, задолго до того, как Ариэль познакомилась с Принцем Эриком и вышла на сушу — времена, когда музыка была еще под запретом в подводном королевсте Атлантики. Разрываясь между семейными обязанностями и любовью к музыке, Ариэль должна сделать самый трудный выбор в своей жизни.
Доп. информация: сценарий Роберт Рис, Эван Спилиотопулос
продюсер Кендра Халланд, Мэри Торн
композитор Джеймс Майкл Дули
художник Tony Pulham
монтаж Джон Ройер
IMDB, КиноПоиск
Источник/Качество: DVDRip
Формат: AVI
Видео кодек: DivX
Аудио кодек: AC3
Видео: 720x416 (1.73:1), 25 fps, DivX Codec 5.x or 6.x ~1845 kbps avg, 0.25 bit/pixel
Аудио: Rus 48 kHz, AC3 Dolby Digital, 3/2 (L,C,R,l,r) + LFE ch, ~384.00 kbps avg
Аудио #2: Eng 48 kHz, AC3 Dolby Digital, 3/2 (L,C,R,l,r) + LFE ch, ~384.00 kbps avg
Субтитры: нет
General
Format : AVI
Format/Info : Audio Video Interleave
File size : 1.37 GiB
Duration : 1h 14mn
Overall bit rate : 2 629 Kbps
Movie name : Rusalochka.3.2008.DivX.DVDRip.Uralmix
Copyright : для портала www.uralmix.ru
Video #0
ID : 0
Format : MPEG-4 Visual
Format settings, BVOP : Yes
Format settings, QPel : No
Format settings, GMC : No warppoints
Format settings, Matrix : Default (H.263)
Muxing mode : Packed bitstream
Codec ID : DX50
Codec ID/Hint : DivX 5
Duration : 1h 14mn
Bit rate : 1 846 Kbps
Width : 720 pixels
Height : 416 pixels
Display aspect ratio : 16:9
Frame rate : 25.000 fps
Resolution : 24 bits
Colorimetry : 4:2:0
Scan type : Progressive
Bits/(Pixel*Frame) : 0.247
Stream size : 982 MiB (70%)
Writing library : DivX 6.7.0 (UTC 2007-09-20)
Audio #1
ID : 1
Format : AC-3
Format/Info : Audio Coding 3
Codec ID : 2000
Duration : 1h 14mn
Bit rate mode : Constant
Bit rate : 384 Kbps
Channel(s) : 6 channels
Channel positions : Front: L C R, Surround: L R, LFE
Sampling rate : 48.0 KHz
Stream size : 204 MiB (15%)
Alignment : Split accross interleaves
Interleave, duration : 40 ms (1.00 video frame)
Interleave, preload duration : 500 ms
Language : 5
Audio #2
ID : 2
Format : AC-3
Format/Info : Audio Coding 3
Codec ID : 2000
Duration : 1h 14mn
Bit rate mode : Constant
Bit rate : 384 Kbps
Channel(s) : 6 channels
Channel positions : Front: L C R, Surround: L R, LFE
Sampling rate : 48.0 KHz
Stream size : 204 MiB (15%)
Alignment : Split accross interleaves
Interleave, duration : 40 ms (1.00 video frame)
Interleave, preload duration : 500 ms







Download / Скачать

Хотите скачать бесплатно? Зарегистрируйтесь на сайте (ссылка на регистрацию). Pirat.ca - самый быстрый торрент трекер в рунете!

Как скачивать  ·   Что такое торрент  ·   Рейтинг и ограничения

Пост 26-Ноя-2011 18:52 (спустя 34 минуты)

Топик был перенесен из форума Мультипликация в форум Зарубежные полнометражные мультфильмы

zyyx
 

Vlad__treker

Морской Волк

184

Пост 23-Дек-2011 00:12 (спустя 26 дней)

[Q] 

Sirota, спасибо жмууу...))

_________________
...:::Pirat.ca:::...
..:::The Best:::...
[Профиль]  [ЛС] 

swetarh

Лоцман

Пост 05-Апр-2012 09:40 (спустя 3 месяца 13 дней)

[Q] 

Спасибо
[Профиль]  [ЛС] 

tu6enka

Флибустьер

Пост 05-Май-2012 07:40 (спустя 29 дней)

[Q] 

Спасибо, племяшке с дочкой понравицо))) anime50
[Профиль]  [ЛС] 

CHARLI2236

1092

Пост 30-Окт-2012 13:31 (спустя 5 месяцев 25 дней)

[Q] 

спасибо

_________________
[Профиль]  [ЛС] 

neponimai

Морской Волк

Пост 10-Окт-2014 22:04 (спустя 1 год 11 месяцев)

[Q] 

Лови бочку Пиратка рулез!!! спасибо)
[Профиль]  [ЛС] 
Показать сообщения:    
Ответить на тему

Текущее время: Сегодня 18:03

Часовой пояс: GMT + 4



Вы не можете начинать темы
Вы не можете отвечать на сообщения
Вы не можете редактировать свои сообщения
Вы не можете удалять свои сообщения
Вы не можете голосовать в опросах
Вы не можете прикреплять файлы к сообщениям
Вы не можете скачивать файлы

▼ Вниз