ML
     
  Уважаемый Гость!
Вы можете поддержать проект и зарегистрироваться у наших партнеров - онлайн-стратегия MyLands. При регистрации в игре Вы получите код, который сможете активировать после регистрации на pirat.ca и получить 1000 дублонов.

Ваш код:
e93cd9e43017f251127f220889864c05934e61c6
 
     

Морская бригада / SeeFood (Аун Хое Го / Aun Hoe Goh) [2011 г., комедия, приключения, семейный, HDRip] (Dub)

Ответить на тему
 
Автор
Сообщение

Пост 26-Ноя-2011 18:57

[Q] 

Sirota

Легенда

Морская бригада / SeeFood Год выпуска: 2011
Мировая премьера: 7 октября 2011
Российская премьера: 20 октября 2011, «Каропрокат»
Дата выхода DVD: 20 ноября 2011, «Мистерия Звука»
Производство: Малайзия
Жанр: комедия, приключения, семейный
Продолжительность: 01:32:05
Перевод: профессиональный (полное дублирование)
Автор(ы) перевода: Денис Беспалый, Андрей Чижов, Константин Карасик, Диомид Виноградов, Любовь Германова, Татьяна Шитова и другие.
Режиссер: Аун Хое Го / Aun Hoe Goh
Описание: Две бамбуковые акулы — Пап и Джулиус — покидают свой родной риф и отправляются в рискованное и увлекательное приключение к берегам континента с целью спасти своих собратьев от распоясавшихся браконьеров.
Доп. информация: сборы в России $2 242 648
Сэмпл, IMDB, КиноПоиск
Источник/Качество: HDRip исходник (BluRay 1080p)
Формат: AVI
Видео кодек: XviD
Аудио кодек: AC3
Видео: 720x400 (1.80:1), 24.000 fps, XviD MPEG-4 ~1668 kbps avg, 0.24 bit/pixel
Аудио: 48 kHz, AC3 Dolby Digital, 3/2 (L,C,R,l,r) + LFE ch, ~448.00 kbps avg
Субтитры: нет
General
Format : AVI
Format/Info : Audio Video Interleave
File size : 1.37 GiB
Duration : 1h 32mn
Overall bit rate : 2 126 Kbps
Writing application : VirtualDubMod 1.5.10.3 (build 2550/release)
Writing library : VirtualDubMod build 2550/release
Video #0
ID : 0
Format : MPEG-4 Visual
Format profile : [email protected]
Format settings, BVOP : Yes
Format settings, QPel : No
Format settings, GMC : No warppoints
Format settings, Matrix : Default (H.263)
Muxing mode : Packed bitstream
Codec ID : XVID
Codec ID/Hint : XviD
Duration : 1h 32mn
Bit rate : 1 668 Kbps
Width : 720 pixels
Height : 400 pixels
Display aspect ratio : 16:9
Frame rate : 24.000 fps
Resolution : 24 bits
Colorimetry : 4:2:0
Scan type : Progressive
Bits/(Pixel*Frame) : 0.241
Stream size : 1.07 GiB (78%)
Writing library : XviD 64
Audio #1
ID : 1
Format : AC-3
Format/Info : Audio Coding 3
Codec ID : 2000
Duration : 1h 32mn
Bit rate mode : Constant
Bit rate : 448 Kbps
Channel(s) : 6 channels
Channel positions : Front: L C R, Surround: L R, LFE
Sampling rate : 48.0 KHz
Stream size : 295 MiB (21%)
Alignment : Split accross interleaves
Interleave, duration : 42 ms (1.00 video frame)
Interleave, preload duration : 500 ms







-
-Релиз подготовлен:

-
-
Download / Скачать

Хотите скачать бесплатно? Зарегистрируйтесь на сайте (ссылка на регистрацию). Pirat.ca - самый быстрый торрент трекер в рунете!

Как скачивать  ·   Что такое торрент  ·   Рейтинг и ограничения



Последний раз редактировалось: Sirota (2011-12-28 21:37), всего редактировалось 1 раз

Пост 26-Ноя-2011 19:17 (спустя 20 минут)

Топик был перенесен из форума Мультипликация в форум Новинки (HD|DVD|BD|TV|SAT|PDTV| - Rips)

zyyx
 

Amon

Корсар

Пост 26-Ноя-2011 19:34 (спустя 36 минут)

[Q] 

Смортим!
[Профиль]  [ЛС] 

Luzhok

Легенда

Пост 26-Ноя-2011 20:12 (спустя 38 минут)

[Q] 

уважаемый Sirota, спасибо за HDRip
между прочим, единственный из пяти релизеров этого мульта у нас на Пиратке правильно написал название - SeeFood
[Профиль]  [ЛС] 

nikolas-first

Штурман

4

Пост 27-Ноя-2011 06:58 (спустя 10 часов)

[Q] 

Даже не знаю, какую дать характеристику этому мультфильму... Мне не понравился. Какой то он нудный. Посмотрел всего 15 минут и выключил, может дальше он и смешной, но "прелюдия" к этому моменту очень длинная и неудачная!)) Спасибо за раздачу!!!
[Профиль]  [ЛС] 

dimonpa

Гроза морей

Пост 27-Ноя-2011 11:11 (спустя 4 часа)

[Q] 

Одобрямс
[Профиль]  [ЛС] 

zoliun

Лоцман

Пост 27-Ноя-2011 11:43 (спустя 32 минуты)

[Q] 

мульт нудный и скучный даже нет моментов где можно посмеяться !
Мультфильм для 6-7 Летних детей
[Профиль]  [ЛС] 

CHARLI2236

1089

Пост 30-Окт-2012 13:19 (спустя 11 месяцев 3 дня)

[Q] 

спасибо

_________________
[Профиль]  [ЛС] 
Показать сообщения:    
Ответить на тему

Текущее время: Сегодня 04:27

Часовой пояс: GMT + 4



Вы не можете начинать темы
Вы не можете отвечать на сообщения
Вы не можете редактировать свои сообщения
Вы не можете удалять свои сообщения
Вы не можете голосовать в опросах
Вы не можете прикреплять файлы к сообщениям
Вы не можете скачивать файлы

▼ Вниз