ML
     
  Уважаемый Гость!
Вы можете поддержать проект и зарегистрироваться у наших партнеров - онлайн-стратегия MyLands. При регистрации в игре Вы получите код, который сможете активировать после регистрации на pirat.ca и получить 1000 дублонов.

Ваш код:
8dcb839cf1b47e56d6dc42d17f26b3e4822e9aee
 
     

Лесная братва / Over the Hedge (Тим Джонсон, Кэри Киркпатрик / Tim Johnson, Karey Kirkpatrick) [2006 г., комедия, приключения, семейный, HDTVRip] (Dub)

Ответить на тему
 
Автор
Сообщение

Пост 27-Ноя-2011 09:46

[Q] 

Sirota

Легенда

Лесная братва / Over the Hedge Год выпуска: 2006
Мировая премьера: 22 апреля 2006
Российская премьера: 26 мая 2006, «UIP»
Дата выхода DVD: 24 марта 2011, «ВС трейд»
Производство: США
Жанр: комедия, приключения, семейный
Продолжительность: 01:19:48
Перевод: профессиональный (полное дублирование)
Автор(ы) перевода: Гоша Куценко, Дмитрий Гранкин, Георгий Корольчук, Ирина Ракшина, Евгений Умаров
Режиссер: Тим Джонсон, Кэри Киркпатрик / Tim Johnson, Karey Kirkpatrick
В ролях: Брюс Уиллис
Стив Карелл
Гарри Шендлинг
Ванда Сайкес
Уильям Шетнер
Ник Нолти
Томас Хейден Чёрч
Эллисон Джэнни
Юджин Леви
Кэтрин О’Хара
Описание: Пробудившаяся весной от зимней спячки черепаха Верн и ее лесные друзья обнаруживают, что на территории их обитания выросла высоченная живая изгородь. Находчивый енот ЭрДжей объясняет своим бестолковым товарищам, что мир, находящийся за изгородью, это «ворота в прекрасную жизнь», так как там обитают странные существа, называемые людьми, которые живут, чтобы есть, а не едят, чтобы жить.
Славящийся своей осторожностью и подозрительностью Верн хочет удержать лесную братию от искушения оказаться по ту сторону изгороди. Однако настырный ЭрДжей доказывает всем, что отходы человеческой жизнедеятельности — это настоящее сокровище для животных. Он убеждает своих собратьев, что следует отбросить страх и воспользоваться таким удачным соседством. В итоге ЭрДжей и Верн заключают дружеский союз и начинают наслаждаться плодами цивилизации…
Доп. информация: сценарий Лен Блум, Лорн Кэмерон, Дэвид Хоселтон,
продюсер Бонни Арнольд, Кристиан Кубш, Эллен Косс,
композитор Руперт Грегсон-Уильямс
художник Кэти Алтери, Пол Шэрдлоу, Джейн Пул
монтаж Джон К. Карр
сборы в США $155 019 340
сборы в мире + $180 186 722 = $335 206 062
сборы в России $7 054 092
DVD в США $130 672 600
IMDB, КиноПоиск
Источник/Качество: HDTVRip
Формат: AVI
Видео кодек: XviD
Аудио кодек: AC3
Видео: 720x400 (1.80:1), 25 fps, XviD build 63 ~2218 kbps avg, 0.31 bit/pixel
Аудио: 48 kHz, AC3 Dolby Digital, 3/2 (L,C,R,l,r) + LFE ch, ~384.00 kbps avg
Субтитры: нет
Кинонаграды «MTV-Россия», 2007 год
Номинации (1):
Лучший анимационный фильм
Сатурн, 2007 год
Номинации (1):
Лучший анимационный фильм
General
Format : AVI
Format/Info : Audio Video Interleave
File size : 1.46 GiB
Duration : 1h 19mn
Overall bit rate : 2 612 Kbps
Writing application : VirtualDubMod 1.5.10.3 (build 2550/release)
Writing library : VirtualDubMod build 2550/release
Video #0
ID : 0
Format : MPEG-4 Visual
Format profile : [email protected]
Format settings, BVOP : Yes
Format settings, QPel : No
Format settings, GMC : No warppoints
Format settings, Matrix : Custom
Codec ID : XVID
Codec ID/Hint : XviD
Duration : 1h 19mn
Bit rate : 2 219 Kbps
Width : 720 pixels
Height : 400 pixels
Display aspect ratio : 16:9
Frame rate : 25.000 fps
Resolution : 24 bits
Colorimetry : 4:2:0
Scan type : Progressive
Bits/(Pixel*Frame) : 0.308
Stream size : 1.24 GiB (85%)
Writing library : XviD 63
Audio #1
ID : 1
Format : AC-3
Format/Info : Audio Coding 3
Codec ID : 2000
Duration : 1h 19mn
Bit rate mode : Constant
Bit rate : 384 Kbps
Channel(s) : 6 channels
Channel positions : Front: L C R, Surround: L R, LFE
Sampling rate : 48.0 KHz
Stream size : 219 MiB (15%)
Alignment : Split accross interleaves
Interleave, duration : 40 ms (1.00 video frame)
Interleave, preload duration : 500 ms






Download / Скачать

Хотите скачать бесплатно? Зарегистрируйтесь на сайте (ссылка на регистрацию). Pirat.ca - самый быстрый торрент трекер в рунете!

Как скачивать  ·   Что такое торрент  ·   Рейтинг и ограничения

Пост 27-Ноя-2011 10:06 (спустя 20 минут)

Топик был перенесен из форума Мультипликация в форум Зарубежные полнометражные мультфильмы

zyyx
 

doktor33

Лоцман

Пост 29-Ноя-2011 13:14 (спустя 2 дня 3 часа)

[Q] 

спасибо за мульт!!!!!!!
[Профиль]  [ЛС] 

mishasmith.sx4

Шкипер

Пост 29-Ноя-2011 15:15 (спустя 2 часа)

[Q] 

спасибо,.. фильм не новый,.. не смотрел,... буду с сыном смотреть...
[Профиль]  [ЛС] 

CHARLI2236

1098

Пост 30-Окт-2012 13:16 (спустя 11 месяцев)

[Q] 

спс

_________________
[Профиль]  [ЛС] 

ku6opr

Морской Волк

184

Пост 09-Май-2013 13:20 (спустя 6 месяцев 10 дней)

[Q] 

Сына в восторге

_________________
[Профиль]  [ЛС] 

Хока34

Морской Волк

Пост 09-Май-2013 17:42 (спустя 4 часа)

[Q] 

Мульт бомба! Старшая смотрела с удовольствием, надеюсь и младших порадую!
[Профиль]  [ЛС] 

Ivar1990

Морской Волк

Пост 22-Мар-2016 10:23 (спустя 2 года 10 месяцев)

[Q] 

благодарю Всем качать!!! Лови бочку
[Профиль]  [ЛС] 

BookkeeperWolf

Легенда

Пост 22-Мар-2016 11:31 (спустя 1 час 7 минут)

[Q] 

Спасибо! !COOL!
[Профиль]  [ЛС] 
Показать сообщения:    
Ответить на тему

Текущее время: Сегодня 04:16

Часовой пояс: GMT + 4



Вы не можете начинать темы
Вы не можете отвечать на сообщения
Вы не можете редактировать свои сообщения
Вы не можете удалять свои сообщения
Вы не можете голосовать в опросах
Вы не можете прикреплять файлы к сообщениям
Вы не можете скачивать файлы

▼ Вниз