ML
     
  Уважаемый Гость!
Вы можете поддержать проект и зарегистрироваться у наших партнеров - онлайн-стратегия MyLands. При регистрации в игре Вы получите код, который сможете активировать после регистрации на pirat.ca и получить 1000 дублонов.

Ваш код:
f612af22ea70acf5cbe90707ac5a076d215f8f7f
 
     

Би Муви: Медовый заговор / Bee Movie (Стив Хикнер, Саймон Дж. Смит / Steve Hickner, Simon J. Smith) [2007 г., комедия, приключения, семейный, BDRip] (Dub)

Ответить на тему
 
Автор
Сообщение

Пост 27-Ноя-2011 10:44

[Q] 

Sirota

Легенда

Би Муви: Медовый заговор / Bee Movie Год выпуска: 2007
Мировая премьера: 28 октября 2007
Российская премьера: 1 ноября 2007, «UPI»
Дата выхода DVD: 29 марта 2011, «Флагман-Трейд»
Производство: США
Жанр: комедия, приключения, семейный
Продолжительность: 01:30:40
Перевод: профессиональный (полное дублирование)
Автор(ы) перевода: Михаил Шац, Валерия Кудрявцева, Василий Дахненко, Владимир Зайцев, Алексей Колган
Режиссер: Стив Хикнер, Саймон Дж. Смит / Steve Hickner, Simon J. Smith
В ролях: жерри Сейнфелд
Рене Зеллвегер
Мэттью Бродерик
Патрик Варбертон
Джон Гудмен
Крис Рок
Кэти Бейтс
Барри Левинсон
Ларри Кинг
Рэй Лиотта
Описание: Барри Би Нельсон — пчелка, только что закончившая колледж и весьма разочарованная дальнейшей карьерой. Ведь единственный выбор, открывающийся перед ней — сбор меда. Отправившись куда глаза глядят, Барри попадает в передрягу, из которой его вызволяет Ванесса, нью-йоркская цветочница.
Барри немедленно влюбляется в спасительницу, и перебирается жить поближе к ней. Именно в Нью-Йорке он узнает, что мед, который с таким трудом добывают пчелы, люди съедают. И Барри решает предъявить человечеству иск.
Доп. информация: сценарий Джерри Сейнфелд, Спайк Ферестен, Бэрри Мардер,
продюсер Джерри Сейнфелд, Кристина Стейнберг, Камерон Стевнинг,
композитор Руперт Грегсон-Уильямс
художник Алекс Макдауэлл, Кристоф Лотретт, Джейн Пул
монтаж Ник Флетчер
бюджет $150 000 000
сборы в США $126 631 277
сборы в мире + $160 963 307 = $287 594 584
сборы в России $7 649 857

IMDB, КиноПоиск
Источник/Качество: BDRip
Формат: AVI
Видео кодек: XviD
Аудио кодек: AC3
Видео: 704x400 (1.76:1), 23.976 fps, XviD build 64 ~1906 kbps avg, 0.28 bit/pixel
Аудио: 48 kHz, AC3 Dolby Digital, 3/2 (L,C,R,l,r) + LFE ch, ~384.00 kbps avg
Субтитры: нет
Золотой глобус, 2008 год
Номинации (1):
Лучший анимационный фильм
General
Format : AVI
Format/Info : Audio Video Interleave
File size : 1.46 GiB
Duration : 1h 30mn
Overall bit rate : 2 300 Kbps
Writing application : VirtualDubMod 1.5.10.2 (build 2540/release)
Writing library : VirtualDubMod build 2540/release
Video #0
ID : 0
Format : MPEG-4 Visual
Format profile : [email protected]
Format settings, BVOP : Yes
Format settings, QPel : No
Format settings, GMC : No warppoints
Format settings, Matrix : Custom
Codec ID : XVID
Codec ID/Hint : XviD
Duration : 1h 30mn
Bit rate : 1 907 Kbps
Width : 704 pixels
Height : 400 pixels
Display aspect ratio : 16:9
Frame rate : 23.976 fps
Resolution : 24 bits
Colorimetry : 4:2:0
Scan type : Progressive
Bits/(Pixel*Frame) : 0.282
Stream size : 1.21 GiB (83%)
Writing library : XviD 64
Audio #1
ID : 1
Format : AC-3
Format/Info : Audio Coding 3
Codec ID : 2000
Duration : 1h 30mn
Bit rate mode : Constant
Bit rate : 384 Kbps
Channel(s) : 6 channels
Channel positions : Front: L C R, Surround: L R, LFE
Sampling rate : 48.0 KHz
Stream size : 249 MiB (17%)
Alignment : Split accross interleaves
Interleave, duration : 42 ms (1.00 video frame)
Interleave, preload duration : 500 ms







Download / Скачать

Хотите скачать бесплатно? Зарегистрируйтесь на сайте (ссылка на регистрацию). Pirat.ca - самый быстрый торрент трекер в рунете!

Как скачивать  ·   Что такое торрент  ·   Рейтинг и ограничения

Пост 27-Ноя-2011 11:40 (спустя 56 минут)

Топик был перенесен из форума Мультипликация в форум Зарубежные полнометражные мультфильмы

zyyx
 

Lawr

Лоцман

Пост 22-Фев-2012 23:30 (спустя 2 месяца 25 дней)

[Q] 

Спасибо
[Профиль]  [ЛС] 

Andrello

Шкипер

Пост 25-Фев-2012 22:35 (спустя 2 дня 23 часа)

[Q] 

[Профиль]  [ЛС] 

Элизиотта

Морской Волк

329

Пост 07-Окт-2012 12:01 (спустя 7 месяцев 10 дней)

[Q] 

Просто отличный мультфильм!
[Профиль]  [ЛС] 

CHARLI2236

1098

Пост 30-Окт-2012 12:51 (спустя 23 дня)

[Q] 

благодарю

_________________
[Профиль]  [ЛС] 

garryson

Морской Волк

10

Пост 21-Апр-2013 20:21 (спустя 5 месяцев 22 дня)

[Q] 

[Профиль]  [ЛС] 
Показать сообщения:    
Ответить на тему

Текущее время: Сегодня 00:23

Часовой пояс: GMT + 4



Вы не можете начинать темы
Вы не можете отвечать на сообщения
Вы не можете редактировать свои сообщения
Вы не можете удалять свои сообщения
Вы не можете голосовать в опросах
Вы не можете прикреплять файлы к сообщениям
Вы не можете скачивать файлы

▼ Вниз