ML
     
  Уважаемый Гость!
Вы можете поддержать проект и зарегистрироваться у наших партнеров - онлайн-стратегия MyLands. При регистрации в игре Вы получите код, который сможете активировать после регистрации на pirat.ca и получить 1000 дублонов.

Ваш код:
500cb7bd8d2cec9a8aba647a87ce41c4b76f06bd
 
     

Мухнём на Луну / Fly Me to the Moon (Бен Стассен / Ben Stassen) [2008 г., комедия. фантастика, приключения, семейный, BDRip] (Dub)

Ответить на тему
 
Автор
Сообщение

Пост 27-Ноя-2011 11:22

[Q] 

Sirota

Легенда

Мухнём на Луну / Fly Me to the Moon Год выпуска: 2008
Мировая премьера: 30 января 2008
Российская премьера: 21 августа 2008, «Каскад»
Дата выхода DVD: 24 сентября 2008, «New Dream media»
Производство: США, Бельгия
Жанр: комедия. фантастика, приключения, семейный
Продолжительность: 01:20:52
Перевод: профессиональный (полное дублирование) + оригинал
Автор(ы) перевода: Александр Аравушкин, Андрей Лёвин, Сергей Паршин, Станислав Концевич, Константин Ефимов
Режиссер: Бен Стассен / Ben Stassen
В ролях: Кристофер Ллойд
Келли Рипа
Николетт Шеридан
Тим Карри
Тревор Ганьон
Филип Болден
Дэвид Гор
Эд Бегли мл.
Эдриенн Барбо
Роберт Патрик
Описание: Мечты о звездах и путешествиях к далеким космическим галактикам будоражат не только людские умы. Оказывается, ничто человеческое не чуждо и… мухам. Три отважные мушки тайком пробираются на космический корабль. Их ждет полный невероятных приключений полет на Луну…
Доп. информация: сценарий Домоник Парис
продюсер Кэролайн Ван Айсегем, Джина Галло, Шарлотта Клэй Хаггинс,
композитор Рамин Джавади
художник Джереми Дегрусон
бюджет $25 000 000
сборы в США $13 816 982
сборы в мире + $27 595 282 = $41
412 264
сборы в России $3 798 445

IMDB, КиноПоиск
Источник/Качество: BDRip (источник Blu-ray Remux /1080p)
Формат: AVI
Видео кодек: XviD
Аудио кодек: AC3
Видео: 720x400 (1.80:1), 25 fps, XviD build 50 ~1926 kbps avg, 0.27 bit/pixel
Аудио:Rus 48 kHz, AC3 Dolby Digital, 3/2 (L,C,R,l,r) + LFE ch, ~448.00 kbps avg
Аудио #2:Eng 48 kHz, AC3 Dolby Digital, 2/0 (L,R) ch, ~192.00 kbps avg
Субтитры: нет
Европейская киноакадемия, 2009 год
Номинации (1):
Приз зрительских симпатий
General
Format : AVI
Format/Info : Audio Video Interleave
File size : 1.46 GiB
Duration : 1h 20mn
Overall bit rate : 2 580 Kbps
Director : BurdOSS
Writing application : VirtualDubModRus 1.5.10.2 (build 2542/release)
Copyright : HQ-ViDEO
Video #0
ID : 0
Format : MPEG-4 Visual
Format profile : [email protected]
Format settings, BVOP : Yes
Format settings, QPel : No
Format settings, GMC : No warppoints
Format settings, Matrix : Custom
Codec ID : XVID
Codec ID/Hint : XviD
Duration : 1h 20mn
Bit rate : 1 927 Kbps
Width : 720 pixels
Height : 400 pixels
Display aspect ratio : 16:9
Frame rate : 25.000 fps
Resolution : 24 bits
Colorimetry : 4:2:0
Scan type : Progressive
Bits/(Pixel*Frame) : 0.268
Stream size : 1.09 GiB (75%)
Writing library : XviD 1.2.1 (UTC 2008-12-04)
Audio #1
ID : 1
Format : AC-3
Format/Info : Audio Coding 3
Codec ID : 2000
Duration : 1h 20mn
Bit rate mode : Constant
Bit rate : 448 Kbps
Channel(s) : 6 channels
Channel positions : Front: L C R, Surround: L R, LFE
Sampling rate : 48.0 KHz
Stream size : 258 MiB (17%)
Alignment : Split accross interleaves
Interleave, duration : 40 ms (1.00 video frame)
Interleave, preload duration : 500 ms
Audio #2
ID : 2
Format : AC-3
Format/Info : Audio Coding 3
Codec ID : 2000
Duration : 1h 20mn
Bit rate mode : Constant
Bit rate : 192 Kbps
Channel(s) : 2 channels
Channel positions : L R
Sampling rate : 48.0 KHz
Stream size : 111 MiB (7%)
Alignment : Split accross interleaves
Interleave, duration : 40 ms (1.00 video frame)
Interleave, preload duration : 500 ms







Download / Скачать

Хотите скачать бесплатно? Зарегистрируйтесь на сайте (ссылка на регистрацию). Pirat.ca - самый быстрый торрент трекер в рунете!

Как скачивать  ·   Что такое торрент  ·   Рейтинг и ограничения



Последний раз редактировалось: Sirota (2011-11-27 12:02), всего редактировалось 2 раз(а)

Пост 27-Ноя-2011 11:40 (спустя 17 минут)

Топик был перенесен из форума Мультипликация в форум Зарубежные полнометражные мультфильмы

zyyx
 

Luzhok

Легенда

Пост 27-Ноя-2011 11:52 (спустя 29 минут)

[Q] 

Sirota,
благодарю
[Профиль]  [ЛС] 

Foxhole

Штурман

Пост 30-Ноя-2011 20:50 (спустя 3 дня)

[Q] 

Спасибо!

_________________
"Лучше потерять жену,чем скорость на четвертом развороте."
[Профиль]  [ЛС] 

berezeca

Корсар

Пост 14-Янв-2012 11:47 (спустя 1 месяц 13 дней)

[Q] 

спасибо
[Профиль]  [ЛС] 

CHARLI2236

1094

Пост 30-Окт-2012 13:19 (спустя 9 месяцев 16 дней)

[Q] 

благодарю

_________________
[Профиль]  [ЛС] 

ГАЛАР

Штурман

Пост 30-Окт-2012 13:34 (спустя 14 минут)

[Q] 

[Профиль]  [ЛС] 
Показать сообщения:    
Ответить на тему

Текущее время: Сегодня 01:50

Часовой пояс: GMT + 4



Вы не можете начинать темы
Вы не можете отвечать на сообщения
Вы не можете редактировать свои сообщения
Вы не можете удалять свои сообщения
Вы не можете голосовать в опросах
Вы не можете прикреплять файлы к сообщениям
Вы не можете скачивать файлы

▼ Вниз