ML
     
  Уважаемый Гость!
Вы можете поддержать проект и зарегистрироваться у наших партнеров - онлайн-стратегия MyLands. При регистрации в игре Вы получите код, который сможете активировать после регистрации на pirat.ca и получить 1000 дублонов.

Ваш код:
47bfc18b89c74e4ae0d974e9b6943639e2bff08e
 
     

Коралина в Cтране Кошмаров / Coraline (Генри Селик / Henry Selick) [2009 г., фэнтези, триллер, приключения, семейный, HDRip] (Dub)

Ответить на тему
 
Автор
Сообщение

Пост 27-Ноя-2011 14:12

[Q] 

Sirota

Легенда

Коралина в Cтране Кошмаров / Coraline Год выпуска: 2009
Мировая премьера: 5 февраля 2009
Российская премьера: 30 апреля 2009, «UPI»
Дата выхода DVD: 28 июля 2009, «Юниверсал Пикчерс Рус»
Производство: США, Laika Entertainment
Жанр: фэнтези, триллер, приключения, семейный
Продолжительность: 01:36:12
Перевод: профессиональный (полное дублирование)
Автор(ы) перевода: Анна Штукатурова, Владимир Зайцев, Елена Соловьева, Елена Бушуева, Людмила Гнилова
Режиссер: Генри Селик / Henry Selick
В ролях: Дакота Фаннинг
Кит Дэвид
Тери Хэтчер
Дженнифер Сoндерс
Доун Френч
Джон Хуткман
Роберт Бэйли мл.
Иэн МакШейн
Аанха Нил
Джордж Селик
Описание: Коралина, маленькая девочка, попадает в другой мир, скрытый за секретной дверцей. Этот мир — ее альтернативная жизнь, которая не перестает ее радовать, все здесь хорошо, но только до поры до времени. Однажды она понимает, что ее настоящим родителям за ее проделки угрожает смертельная опасность. Коралине придется найти выход из мира, наполненного призраками, в реальную жизнь…
Доп. информация: сценарий Генри Селик, Нил Гейман
продюсер Клер Дженнингс, Билл Микэник, Мэри Сэнделл,
оператор Пит Козачик
композитор Бруно Куле
художник Генри Селик, Фил Бразертон, Ли Бо Генри,
монтаж Кристофер Мюрри, Рональд Сандерс
бюджет $60 000 000
сборы в США $75 286 229
сборы в мире + $49 310 169 = $124 596 398
сборы в России $1 736 181

DVD в США $45 347 654

Сэмпл, IMDB, КиноПоиск
Источник/Качество: HDRip (источник: BDRip 720)
Формат: AVI
Видео кодек: XviD
Аудио кодек: AC3
Видео: 720x384 (1.88:1), 25 fps, XviD MPEG-4 ~1769 kbps avg, 0.26 bit/pixel
Аудио: 48 kHz, AC3 Dolby Digital, 3/2 (L,C,R,l,r) + LFE ch, ~384.00 kbps avg
Субтитры: нет
Оскар, 2010 год
Номинации (1):
Лучший анимационный фильм
Золотой глобус, 2010 год
Номинации (1):
Лучший анимационный фильм
Британская академия, 2010 год
Номинации (1):
Лучший анимационный фильм
Жорж, 2010 год
Номинации (1):
Лучший анимационный фильм
Сатурн, 2010 год
Номинации (1):
Лучший анимационный фильм
General
Format : AVI
Format/Info : Audio Video Interleave
File size : 1.46 GiB
Duration : 1h 36mn
Overall bit rate : 2 162 Kbps
Movie name : Коралина в Стране Кошмаров / Coraline (2009)
Director : KiLROY/SENATOR (BDRip 720)
Writing application : VirtualDubMod 1.5.10.2 (build 2540/release)
Copyright : HQ-ViDEO
Comment : 31.07.2009
Video #0
ID : 0
Format : MPEG-4 Visual
Format profile : [email protected]
Format settings, BVOP : Yes
Format settings, QPel : No
Format settings, GMC : No warppoints
Format settings, Matrix : Custom
Muxing mode : Packed bitstream
Codec ID : XVID
Codec ID/Hint : XviD
Duration : 1h 36mn
Bit rate : 1 769 Kbps
Width : 720 pixels
Height : 384 pixels
Display aspect ratio : 1.875
Frame rate : 25.000 fps
Resolution : 24 bits
Colorimetry : 4:2:0
Scan type : Progressive
Bits/(Pixel*Frame) : 0.256
Stream size : 1.19 GiB (82%)
Writing library : XviD 1.2.1 (UTC 2008-12-04)
Audio #1
ID : 1
Format : AC-3
Format/Info : Audio Coding 3
Codec ID : 2000
Duration : 1h 36mn
Bit rate mode : Constant
Bit rate : 384 Kbps
Channel(s) : 6 channels
Channel positions : Front: L C R, Surround: L R, LFE
Sampling rate : 48.0 KHz
Video delay : 2s 370ms
Stream size : 264 MiB (18%)
Alignment : Split accross interleaves
Interleave, duration : 40 ms (1.00 video frame)
Interleave, preload duration : 500 ms







Download / Скачать

Хотите скачать бесплатно? Зарегистрируйтесь на сайте (ссылка на регистрацию). Pirat.ca - самый быстрый торрент трекер в рунете!

Как скачивать  ·   Что такое торрент  ·   Рейтинг и ограничения

Пост 27-Ноя-2011 14:52 (спустя 39 минут)

Топик был перенесен из форума Мультипликация в форум Зарубежные полнометражные мультфильмы

zyyx
 

Voland57

Корсар

Пост 11-Июн-2012 15:30 (спустя 6 месяцев 14 дней)

[Q] 

[Профиль]  [ЛС] 

CHARLI2236

1097

Пост 30-Окт-2012 13:10 (спустя 4 месяца 18 дней)

[Q] 

спс

_________________
[Профиль]  [ЛС] 

Tosha

110

Пост 22-Авг-2014 22:53 (спустя 1 год 9 месяцев)

[Q] 

Из за сборов попробую глянуть

_________________
Выполняем ремонт любой сложности!
Бытовая техника, мясорубки, кофе-машины, парогенераторы, моющие системы, оверлоки и пуговичные машины, а так же бытовые и промышленные швейные машины.
РЕМОНТ КОМПЬЮТЕРОВ И НОУТБУКОВ

ООО "Гарант" http://GARANTREM.RU
[Профиль]  [ЛС] 

Нурик

Юнга

Пост 26-Июл-2015 14:47 (спустя 11 месяцев 3 дня)

[Q] 

Спасибо!Скачаю для доченьки.
[Профиль]  [ЛС] 
Показать сообщения:    
Ответить на тему

Текущее время: Сегодня 07:04

Часовой пояс: GMT + 4



Вы не можете начинать темы
Вы не можете отвечать на сообщения
Вы не можете редактировать свои сообщения
Вы не можете удалять свои сообщения
Вы не можете голосовать в опросах
Вы не можете прикреплять файлы к сообщениям
Вы не можете скачивать файлы

▼ Вниз