ML
     
  Уважаемый Гость!
Вы можете поддержать проект и зарегистрироваться у наших партнеров - онлайн-стратегия MyLands. При регистрации в игре Вы получите код, который сможете активировать после регистрации на pirat.ca и получить 1000 дублонов.

Ваш код:
db0e0ad91548759ffeb9bb88bed405e1a4b3c165
 
     

Под покровом Ночи / Nocturna (Адрия Гарсия, Виктор Мелдонадо / Adrià García, Víctor Maldonado) [2007 г., фэнтези, детектив, приключения, семейный, DVDRip] (MVO)

Ответить на тему
 
Автор
Сообщение

Пост 27-Ноя-2011 15:05

[Q] 

Sirota

Легенда

Под покровом Ночи / Nocturna Год выпуска: 2007
Мировая премьера: 6 сентября 2007
Дата выхода DVD: 1 октября 2009, «CP-Digital»
Производство: Испания
Жанр: фэнтези, детектив, приключения, семейный
Продолжительность: 01:20:10
Перевод: профессиональный (многоголосый, закадровый)
Режиссер: Адрия Гарсия, Виктор Мелдонадо / Adrià García, Víctor Maldonado
В ролях: Иманоль Ариас
Наталия Родригез
Carlos Sobera
Описание: Маленький мальчик как и большинство детей не любит ночь, единственное, что примиряет его с темнотой, это звёздное небо и его любимая звезда. Но однажды ночью она исчезает с неба и малыш Тимми отправляется в ночное путешествие чтобы выяснить, что происходит. Оказавшись в одиночестве в неподходящем для детей месте он обнаруживает целый ночной мир - Ноктюрну, мир где творятся сны и магия ночи. Чтобы вернуть свою звезду, ему предстоит совершить Большое Путешествие, во время которого произойдёт множество волшебных приключений и знакомств. Ночь откроет ему многие свои тайны.
Чудесный мультфильм, добрый и мало на что похожий, с великолепным саундтреком.
Доп. информация: сценарий Adrià García, Виктор Мальдонадо, Teresa Vilardell
продюсер Хулио Фернандес, Philippe Garrell, Карлос Фернандес,
композитор Николас Эррера
художник Альфредо Торрес, Adrià García, Виктор Мальдонадо
монтаж Феликс Буено
IMDB, КиноПоиск
Источник/Качество: DVDRip
Формат: AVI
Видео кодек: DivX
Аудио кодек: AC3
Видео: 704x496 (1.42:1), 25 fps, DivX Codec 5.x or 6.x ~1983 kbps avg, 0.23 bit/pixel
Аудио: 48 kHz, AC3 Dolby Digital, 3/2 (L,C,R,l,r) + LFE ch, ~448.00 kbps avg
Субтитры: нет
Гойя, 2008 год
Победитель (1):
Лучший анимационный фильм
General
Format : AVI
Format/Info : Audio Video Interleave
File size : 1.37 GiB
Duration : 1h 20mn
Overall bit rate : 2 441 Kbps
Writing library : The best and REALLY easy backup tool
Video #0
ID : 0
Format : MPEG-4 Visual
Format settings, BVOP : Yes
Format settings, QPel : No
Format settings, GMC : No warppoints
Format settings, Matrix : Default (H.263)
Muxing mode : Packed bitstream
Codec ID : DX50
Codec ID/Hint : DivX 5
Duration : 1h 20mn
Bit rate : 1 983 Kbps
Width : 704 pixels
Height : 496 pixels
Display aspect ratio : 1.419
Frame rate : 25.000 fps
Resolution : 24 bits
Colorimetry : 4:2:0
Scan type : Progressive
Bits/(Pixel*Frame) : 0.227
Stream size : 1.11 GiB (81%)
Writing library : DivX 6.8.3 (UTC 2008-06-07)
Audio #1
ID : 1
Format : AC-3
Format/Info : Audio Coding 3
Codec ID : 2000
Duration : 1h 20mn
Bit rate mode : Constant
Bit rate : 448 Kbps
Channel(s) : 6 channels
Channel positions : Front: L C R, Surround: L R, LFE
Sampling rate : 48.0 KHz
Stream size : 257 MiB (18%)
Alignment : Split accross interleaves
Interleave, duration : 40 ms (1.00 video frame)
Interleave, preload duration : 500 ms







Download / Скачать

Хотите скачать бесплатно? Зарегистрируйтесь на сайте (ссылка на регистрацию). Pirat.ca - самый быстрый торрент трекер в рунете!

Как скачивать  ·   Что такое торрент  ·   Рейтинг и ограничения

Пост 27-Ноя-2011 15:21 (спустя 16 минут)

Топик был перенесен из форума Мультипликация в форум Зарубежные полнометражные мультфильмы

zyyx
 

mishasmith.sx4

Шкипер

Пост 29-Ноя-2011 15:20 (спустя 2 дня)

[Q] 

....попробую,...
[Профиль]  [ЛС] 

Vampirella

Штурман

Пост 18-Мар-2012 17:40 (спустя 3 месяца 19 дней)

[Q] 

Классный! ))
[Профиль]  [ЛС] 

CHARLI2236

1098

Пост 30-Окт-2012 13:23 (спустя 7 месяцев 11 дней)

[Q] 

благодарю

_________________
[Профиль]  [ЛС] 

shalonina

Гроза морей

Пост 26-Авг-2014 17:21 (спустя 1 год 9 месяцев)

[Q] 

Автору респект!!!

_________________
[Профиль]  [ЛС] 
Показать сообщения:    
Ответить на тему

Текущее время: Сегодня 08:09

Часовой пояс: GMT + 4



Вы не можете начинать темы
Вы не можете отвечать на сообщения
Вы не можете редактировать свои сообщения
Вы не можете удалять свои сообщения
Вы не можете голосовать в опросах
Вы не можете прикреплять файлы к сообщениям
Вы не можете скачивать файлы

▼ Вниз