ML
     
  Уважаемый Гость!
Вы можете поддержать проект и зарегистрироваться у наших партнеров - онлайн-стратегия MyLands. При регистрации в игре Вы получите код, который сможете активировать после регистрации на pirat.ca и получить 1000 дублонов.

Ваш код:
193c38d0130f05c24de871678ea3ac181461757d
 
     

Феи: Потерянное сокровище / Tinker Bell and the Lost Treasure (Клей Холл / Klay Hall) [2009 г., фэнтези, сказка, приключения, семейный, HDTVRip] (Dub)

Ответить на тему
 
Автор
Сообщение

Пост 27-Ноя-2011 15:37

[Q] 

Sirota

Легенда

Феи: Потерянное сокровище / Tinker Bell and the Lost Treasure Год выпуска: 2009
Мировая премьера: 3 сентября 2009
Дата выхода DVD: 12 ноября 2009, «Уолт Дисней Компани СНГ»
Производство: США
Жанр: фэнтези, сказка, приключения, семейный
Продолжительность: 01:20:14
Перевод: профессиональный (полное дублирование) + оригинал
Режиссер: Клей Холл / Klay Hall
В ролях: Мэй Уитман
Анджелика Хьюстон
Кристин Ченоуэт
Люси Лью
Джон Ди Маджио
Памела Адлон
Джесси МакКартни
Рэйвен
Грей ДеЛайл
Джейн Хоррокс
Описание: Продолжение приключений феи мастерицы Динь-Динь и ее друзей. Необходимо омолодить Дерево Фейской Пыльцы. Выбирают фею Динь — лучшего из мастеров, она должна изготовить Скипетр, важнейшая часть которого — Лунный Камень. В ходе работы над Скипетром Лунный Камень был разрушен. Динь-Динь очень хочет исправить ошибку. Она отправляется на север Нетляндии в поисках Волшебного Зеркала, которое может исполнить ее желание.
Доп. информация: сценарий Эван Спилиотопулос, Клэй Холл
продюсер Шон Лури, Lorri Broda, Джон Лассетер,
композитор Джоэл МакНили
художник Эллен Джин
монтаж Джереми Милтон
IMDB, КиноПоиск
Источник/Качество: HDTVRip (источник BDrip /1080p)
Формат: AVI
Видео кодек: XviD
Аудио кодек: AC3
Видео: 720x400 (1.80:1), 23.976 fps, XviD build 50 ~1813 kbps avg, 0.26 bit/pixel
Аудио: Rus 48 kHz, AC3 Dolby Digital, 3/2 (L,C,R,l,r) + LFE ch, ~384.00 kbps avg
Аудио #2: Eng 48 kHz, AC3 Dolby Digital, 3/2 (L,C,R,l,r) + LFE ch, ~384.00 kbps avg
Субтитры: нет
General
Format : AVI
Format/Info : Audio Video Interleave
File size : 1.46 GiB
Duration : 1h 20mn
Overall bit rate : 2 597 Kbps
Director : КОля (BDRip 1080p)
Writing application : VirtualDubModRus 1.5.10.2 (build 2542/release)
Writing library : VirtualDubMod build 2542/release
Copyright : HQ-ViDEO (www.hq-video.ru)
Comment : 21.11.2009
Video #0
ID : 0
Format : MPEG-4 Visual
Format profile : [email protected]
Format settings, BVOP : Yes
Format settings, QPel : No
Format settings, GMC : No warppoints
Format settings, Matrix : Default (MPEG)
Codec ID : XVID
Codec ID/Hint : XviD
Duration : 1h 20mn
Bit rate : 1 815 Kbps
Width : 720 pixels
Height : 400 pixels
Display aspect ratio : 16:9
Frame rate : 23.976 fps
Resolution : 24 bits
Colorimetry : 4:2:0
Scan type : Progressive
Bits/(Pixel*Frame) : 0.263
Stream size : 1.02 GiB (70%)
Writing library : XviD 1.2.1 (UTC 2008-12-04)
Audio #1
ID : 1
Format : AC-3
Format/Info : Audio Coding 3
Codec ID : 2000
Duration : 1h 20mn
Bit rate mode : Constant
Bit rate : 384 Kbps
Channel(s) : 6 channels
Channel positions : Front: L C R, Surround: L R, LFE
Sampling rate : 48.0 KHz
Stream size : 220 MiB (15%)
Alignment : Split accross interleaves
Interleave, duration : 42 ms (1.00 video frame)
Interleave, preload duration : 500 ms
Audio #2
ID : 2
Format : AC-3
Format/Info : Audio Coding 3
Codec ID : 2000
Duration : 1h 20mn
Bit rate mode : Constant
Bit rate : 384 Kbps
Channel(s) : 6 channels
Channel positions : Front: L C R, Surround: L R, LFE
Sampling rate : 48.0 KHz
Stream size : 220 MiB (15%)
Alignment : Split accross interleaves
Interleave, duration : 42 ms (1.00 video frame)
Interleave, preload duration : 500 ms







Download / Скачать

Хотите скачать бесплатно? Зарегистрируйтесь на сайте (ссылка на регистрацию). Pirat.ca - самый быстрый торрент трекер в рунете!

Как скачивать  ·   Что такое торрент  ·   Рейтинг и ограничения

Пост 27-Ноя-2011 16:50 (спустя 1 час 13 минут)

Топик был перенесен из форума Мультипликация в форум Зарубежные полнометражные мультфильмы

zyyx
 

Orange

Штурман

Пост 25-Янв-2012 19:49 (спустя 1 месяц 28 дней)

[Q] 

Спасибо хД
Добрый мульт.
[Профиль]  [ЛС] 

Vlad__treker

Морской Волк

184

Пост 17-Июл-2012 14:28 (спустя 5 месяцев 22 дня)

[Q] 


_________________
...:::Pirat.ca:::...
..:::The Best:::...
[Профиль]  [ЛС] 

CHARLI2236

1092

Пост 30-Окт-2012 13:41 (спустя 3 месяца 12 дней)

[Q] 

спс

_________________
[Профиль]  [ЛС] 

SandroNek

Морской Волк

Пост 17-Дек-2012 11:40 (спустя 1 месяц 17 дней)

[Q] 

Благодарю :)
[Профиль]  [ЛС] 

Вут

Морской Волк

72

Пост 14-Авг-2013 07:07 (спустя 7 месяцев 27 дней)

[Q] 

Классный мульт, доча в восторге! Спасибо! Автору респект!!! Лови бочку
[Профиль]  [ЛС] 

nadeghda22

Юнга

Пост 10-Янв-2015 13:18 (спустя 1 год 4 месяца)

[Q] 

Красивый мультик! Автору респект!!!
[Профиль]  [ЛС] 

Alexlogin

Гроза морей

105

Пост 12-Апр-2015 17:41 (спустя 3 месяца 2 дня)

[Q] 

Спасибо доче нравится
[Профиль]  [ЛС] 
Показать сообщения:    
Ответить на тему

Текущее время: Сегодня 18:07

Часовой пояс: GMT + 4



Вы не можете начинать темы
Вы не можете отвечать на сообщения
Вы не можете редактировать свои сообщения
Вы не можете удалять свои сообщения
Вы не можете голосовать в опросах
Вы не можете прикреплять файлы к сообщениям
Вы не можете скачивать файлы

▼ Вниз