ML
     
  Уважаемый Гость!
Вы можете поддержать проект и зарегистрироваться у наших партнеров - онлайн-стратегия MyLands. При регистрации в игре Вы получите код, который сможете активировать после регистрации на pirat.ca и получить 1000 дублонов.

Ваш код:
6f9ab67d502902cc72a06c406977ddb589b7f39d
 
     

Ледниковый период 3: Эра динозавров / Ice Age: Dawn of the Dinosaurs (Карлос Салдана, Майк Трумейер / Carlos Saldanha, Mike Thurmeier) [2009 г., комедия, приключения, семейный, BDRip] (Dub)

Ответить на тему
 
Автор
Сообщение

Пост 28-Ноя-2011 17:19

[Q] 

Sirota

Легенда

Ледниковый период 3: Эра динозавров / Ice Age: Dawn of the Dinosaurs Год выпуска: 2009
Мировая премьера: 1 июля 2009
Российская премьера: 13 августа 2009, «Двадцатый Век Фокс СНГ»
Дата выхода DVD: 24 сентября 2009, «Двадцатый Век Фокс СНГ»
Производство: США
Жанр: комедия, приключения, семейный
Продолжительность: 01:34:03
Перевод: професиональный (полное дублирование)
Автор(ы) перевода: Степан Старчиков, Антон Комолов, Вадим Галыгин, Ольга Шелест, Андрей Бархударов
Режиссер: Карлос Салдана, Майк Трумейер / Carlos Saldanha, Mike Thurmeier
В ролях: Рэй Романо
Джон Легуизамо
Саймон Пегг
Куин Латифа
Шонн Уильям Скотт
Джош Пек
Дэнис Лири
Крис Уэдж
Юнис Чо
Карен Дишер
Описание: К событиям «Ледникового периода 3» жизнь главных героев мультфильма потерпела некоторые изменения. Мамонты Манфред и Элли ожидают появление на свет своего детёныша; саблезубый тигр Диего впал в раздумье о том, не стал ли он слишком «мягкотелым» в компании своих друзей; ленивец Сид, бредя желанием создать собственное племя, решился украсть несколько яиц динозавра. Отправившись спасать Сида, друзья попадают в таинственный растительный мир, скрытый под толщами льда, где они сталкиваются с динозаврами и агрессивной окружающей средой, а также знакомятся с охотником на динозавров — лаской по имени Бак.
Крысобелка Скрэт (который вновь случайным образом стал виной глобальной проблемы, открыв путь в мир динозавров) по-прежнему гоняется за своим орехом, но на этот раз у него появился конкурент — крысобелка Скрэтти, однако, одновременно с одержимой борьбой за орех, эти двое влюбляются друг в друга.
бюджет $90 000 000
сборы в США $196 573 705
сборы в мире + $690 110 816 = $886 684 521
сборы в России $44 619 281
DVD в США $86 865 617

Доп. информация: сценарий Питер Экерман, Майкл Берг, Йони Бреннер,
продюсер Джон С. Донкин, Лори Форте
композитор Джон Пауэлл
художник Майк Кнапп, Мелани Мартини, Кайл Смит
монтаж Гарри Хитнер, Джеймс Палумбо
Сэмпл, IMDB, КиноПоиск
Источник/Качество: BDRip
Формат: AVI
Видео кодек: XviD
Аудио кодек: AC3
Видео: 720x384 (1.88:1), 23.976 fps, XviD build 64 ~1824 kbps avg, 0.28 bit/pixel
Аудио: 48 kHz, AC3 Dolby Digital, 3/2 (L,C,R,l,r) + LFE ch, ~384.00 kbps avg
Субтитры: нет
Жорж, 2010 год
Победитель (1):
Лучший анимационный фильм
Сатурн, 2010 год
Номинации (1):
Лучший анимационный фильм
General
Format : AVI
Format/Info : Audio Video Interleave
File size : 1.46 GiB
Duration : 1h 34mn
Overall bit rate : 2 218 Kbps
Movie name : Ice.Age.Dawn.of.the.Dinosaurs.2009.BD.Remux (1)
Director : YaBrat
Writing application : VirtualDubMod 1.5.10.3 (build 2550/release)
Copyright : pirat.ca
Comment : RG Multfilms
Video #0
ID : 0
Format : MPEG-4 Visual
Format profile : [email protected]
Format settings, BVOP : Yes
Format settings, QPel : No
Format settings, GMC : No warppoints
Format settings, Matrix : Custom
Codec ID : XVID
Codec ID/Hint : XviD
Duration : 1h 34mn
Bit rate : 1 825 Kbps
Width : 720 pixels
Height : 384 pixels
Display aspect ratio : 1.875
Frame rate : 23.976 fps
Resolution : 24 bits
Colorimetry : 4:2:0
Scan type : Progressive
Bits/(Pixel*Frame) : 0.275
Stream size : 1.20 GiB (82%)
Writing library : XviD 64
Audio #1
ID : 1
Format : AC-3
Format/Info : Audio Coding 3
Codec ID : 2000
Duration : 1h 34mn
Bit rate mode : Constant
Bit rate : 384 Kbps
Channel(s) : 6 channels
Channel positions : Front: L C R, Surround: L R, LFE
Sampling rate : 48.0 KHz
Stream size : 258 MiB (17%)
Alignment : Split accross interleaves
Interleave, duration : 42 ms (1.00 video frame)
Interleave, preload duration : 500 ms







Download / Скачать

Хотите скачать бесплатно? Зарегистрируйтесь на сайте (ссылка на регистрацию). Pirat.ca - самый быстрый торрент трекер в рунете!

Как скачивать  ·   Что такое торрент  ·   Рейтинг и ограничения

Пост 28-Ноя-2011 17:34 (спустя 14 минут)

Топик был перенесен из форума Мультипликация в форум Зарубежные полнометражные мультфильмы

zyyx
 

Мику Хацуне

Лоцман

Пост 02-Дек-2011 06:01 (спустя 3 дня)

[Q] 

няшный мульт ня няяяя особено сид bj bm
[Профиль]  [ЛС] 

Юлия1979

Лоцман

Пост 27-Апр-2012 18:38 (спустя 4 месяца 25 дней)

[Q] 

[Профиль]  [ЛС] 

Shedman

Морской Волк

Пост 15-Май-2012 15:26 (спустя 17 дней)

[Q] 

жалко на торенте игры такой нет:(
[Профиль]  [ЛС] 

Прораб

Легенда

Пост 30-Май-2012 21:24 (спустя 15 дней)

[Q] 


_________________
Config comp: CPU-i7-2600K/RAM-32Gb/GF580GTX-1536Mb/RAID0(2 SSD-480GB)+RAID5(8 HDD-20Tb)/Win7 64bit.
[Профиль]  [ЛС] 

SBalykov

Корсар

1452

Пост 17-Июн-2012 06:46 (спустя 17 дней)

[Q] 


_________________
Never put off till tomorrow what can be done after tomorrow...
S.Balykov
[Профиль]  [ЛС] 

Kisagayver

Лоцман

Пост 31-Июл-2012 19:23 (спустя 1 месяц 14 дней)

[Q] 

[Профиль]  [ЛС] 

CHARLI2236

1089

Пост 30-Окт-2012 13:16 (спустя 2 месяца 29 дней)

[Q] 

благодарю

_________________
[Профиль]  [ЛС] 

evgen9595

Морской Волк

Пост 10-Янв-2013 15:39 (спустя 2 месяца 11 дней)

[Q] 

тоже ок!!

_________________
Я не нервничаю,ты тоже!
[Профиль]  [ЛС] 

samata

Морской Волк

210

Пост 17-Апр-2013 18:07 (спустя 3 месяца 7 дней)

[Q] 

Спасибо.

_________________
[Профиль]  [ЛС] 

black kat

Лоцман

Пост 08-Июл-2013 13:29 (спустя 2 месяца 20 дней)

[Q] 

СПАСИБО!!!!!!!!!!!!!!!!!
[Профиль]  [ЛС] 

Alexe10

Гроза морей

36

Пост 20-Дек-2013 09:53 (спустя 5 месяцев 11 дней)

[Q] 

!COOL!
[Профиль]  [ЛС] 

ZAMOK

Корсар

Пост 30-Май-2014 22:42 (спустя 5 месяцев 10 дней)

[Q] 

Спасибо!!! Супер!

_________________
Не бойся того,с чем не сталкивался.
[Профиль]  [ЛС] 

Alexlogin

Гроза морей

105

Пост 12-Апр-2015 17:44 (спустя 10 месяцев 12 дней)

[Q] 

Спасибо посмотрим оценим
[Профиль]  [ЛС] 

prjadkin

Флибустьер

Пост 21-Май-2015 12:00 (спустя 1 месяц 8 дней)

[Q] 

автору респект Лови бочку
[Профиль]  [ЛС] 

Клайд

Морской Волк

Пост 15-Окт-2016 13:13 (спустя 1 год 4 месяца)

[Q] 

Спасибо, оценим
[Профиль]  [ЛС] 

Sakoru

Корсар

Пост 29-Окт-2016 11:35 (спустя 13 дней)

[Q] 

Спасибо!!! ) уже заценил мульт

_________________
[Профиль]  [ЛС] 
Показать сообщения:    
Ответить на тему

Текущее время: Сегодня 16:33

Часовой пояс: GMT + 4



Вы не можете начинать темы
Вы не можете отвечать на сообщения
Вы не можете редактировать свои сообщения
Вы не можете удалять свои сообщения
Вы не можете голосовать в опросах
Вы не можете прикреплять файлы к сообщениям
Вы не можете скачивать файлы

▼ Вниз