ML
     
  Уважаемый Гость!
Вы можете поддержать проект и зарегистрироваться у наших партнеров - онлайн-стратегия MyLands. При регистрации в игре Вы получите код, который сможете активировать после регистрации на pirat.ca и получить 1000 дублонов.

Ваш код:
8dcb839cf1b47e56d6dc42d17f26b3e4822e9aee
 
     

Бионикл: Легенда возрождается / Bionicle: The Legend Reborn (Марк Балдо / Mark Baldo) [2009 г., боевик, приключения, фантастика, семейный, HDTVRip] (Dub)

Ответить на тему
 
Автор
Сообщение

Пост 28-Ноя-2011 18:03

[Q] 

Sirota

Легенда

Бионикл: Легенда возрождается / Bionicle: The Legend Reborn
Год выпуска: 2009
Мировая премьера: 24 августа 2009
Дата выхода DVD: 8 сентября 2009, «Юниверсал Пикчерс Рус»
Производство: США
Жанр: боевик, приключения, фантастика, семейный
Продолжительность: 01:17:03
Перевод: профессиональный (полное дублирование) лицензия
Автор(ы) перевода: Всеволод Кузнецов, Андрей Ярославцев, Прохор Чеховской, Константин Карасик, Рамиля Искандер
Режиссер: Марк Балдо / Mark Baldo
В ролях: Ди Брэдли Бейкер
Джефф Беннетт
Джим Каммингс
Майкл Дорн
Марк Фамиглетти
Дэвид Лесур
Армин Шимерман
Марла Соколофф
Фред Татаскьор
Джеймс Арнольд Тейлор
Описание: Мата Нуи, некогда великий и могущественный лидер, очнулся на захламленной металлоломом пустоши вдали от дома. После победы в соревнованиях гладиаторов местные жители просят его сразиться с реальными врагами: жестоким Скраллом и Охотниками за костями. Вместе с отважной командой гладиаторов и крестьян Агори Мата Нуи отправляется в эпическое путешествие в новые неведомые страны, чтобы раскрыть удивительные тайны «Бионикла».
Доп. информация: сценарий Шон Катрин Дерек
продюсер David Cragnotti, Дэннис Эдвардс, Патрик Ганн,
композитор Джон Д’Андреа
художник Кристобал Агирр
монтаж Аеолан Келли
IMDB, КиноПоиск
Источник/Качество: HDTVRip
Формат: AVI
Видео кодек: XviD
Аудио кодек: MP3
Видео: 720x400 (1.80:1), 25 fps, XviD build 47 ~2257 kbps avg, 0.31 bit/pixel
Аудио: 48 kHz, AC3 Dolby Digital, 3/2 (L,C,R,l,r) + LFE ch, ~448.00 kbps avg
Субтитры: нет
General
Format : AVI
Format/Info : Audio Video Interleave
File size : 1.46 GiB
Duration : 1h 17mn
Overall bit rate : 2 715 Kbps
Writing application : VirtualDubMod 1.5.10.2 (build 2540/release)
Writing library : VirtualDubMod build 2540/release
Video #0
ID : 0
Format : MPEG-4 Visual
Format profile : [email protected]
Format settings, BVOP : Yes
Format settings, QPel : No
Format settings, GMC : No warppoints
Format settings, Matrix : Default (MPEG)
Codec ID : XVID
Codec ID/Hint : XviD
Duration : 1h 17mn
Bit rate : 2 258 Kbps
Width : 720 pixels
Height : 400 pixels
Display aspect ratio : 16:9
Frame rate : 25.000 fps
Resolution : 24 bits
Colorimetry : 4:2:0
Scan type : Progressive
Bits/(Pixel*Frame) : 0.314
Stream size : 1.22 GiB (83%)
Writing library : XviD 1.2.0.dev47 (UTC 2006-11-01)
Audio #1
ID : 1
Format : AC-3
Format/Info : Audio Coding 3
Codec ID : 2000
Duration : 1h 17mn
Bit rate mode : Constant
Bit rate : 448 Kbps
Channel(s) : 6 channels
Channel positions : Front: L C R, Surround: L R, LFE
Sampling rate : 48.0 KHz
Stream size : 247 MiB (16%)
Alignment : Split accross interleaves
Interleave, duration : 40 ms (1.00 video frame)
Interleave, preload duration : 500 ms







-
-Релиз подготовлен:

-
-
Download / Скачать

Хотите скачать бесплатно? Зарегистрируйтесь на сайте (ссылка на регистрацию). Pirat.ca - самый быстрый торрент трекер в рунете!

Как скачивать  ·   Что такое торрент  ·   Рейтинг и ограничения

Пост 28-Ноя-2011 18:16 (спустя 13 минут)

Топик был перенесен из форума Мультипликация в форум Зарубежные полнометражные мультфильмы

zyyx
 

$МАКС$

Штурман

Пост 26-Апр-2012 09:25 (спустя 4 месяца 27 дней)

[Q] 

[Профиль]  [ЛС] 

g.g.s.

Морской Волк

Пост 03-Май-2012 22:54 (спустя 7 дней)

[Q] 

[Профиль]  [ЛС] 

g.g.s.

Морской Волк

Пост 08-Июн-2012 17:20 (спустя 1 месяц 4 дня)

[Q] 

мои пацаны в восторге
[Профиль]  [ЛС] 

kalmyk73

Морской Волк

Пост 09-Июн-2012 11:12 (спустя 17 часов)

[Q] 


_________________
Я люблю тебя жизнь ну а ты меня СНОВА И СНОВА.
[Профиль]  [ЛС] 

CHARLI2236

1098

Пост 30-Окт-2012 12:52 (спустя 4 месяца 21 день)

[Q] 

спасибо

_________________
[Профиль]  [ЛС] 

EvgeniyM19

Лоцман

2

Пост 04-Янв-2013 12:45 (спустя 2 месяца 4 дня)

[Q] 

Встаньте на раздачу.
[Профиль]  [ЛС] 

amuse

Лоцман

Пост 06-Янв-2013 20:25 (спустя 2 дня 7 часов)

[Q] 

не качается %(
[Профиль]  [ЛС] 
Показать сообщения:    
Ответить на тему

Текущее время: Сегодня 04:13

Часовой пояс: GMT + 4



Вы не можете начинать темы
Вы не можете отвечать на сообщения
Вы не можете редактировать свои сообщения
Вы не можете удалять свои сообщения
Вы не можете голосовать в опросах
Вы не можете прикреплять файлы к сообщениям
Вы не можете скачивать файлы

▼ Вниз