ML
     
  Уважаемый Гость!
Вы можете поддержать проект и зарегистрироваться у наших партнеров - онлайн-стратегия MyLands. При регистрации в игре Вы получите код, который сможете активировать после регистрации на pirat.ca и получить 1000 дублонов.

Ваш код:
0ea1bf889af42fca5f67d0a391efb3400850ad7c
 
     

Кунг-фу Кролик / Tu Xia Chuan Qi (Cан Ли Джан / Lijun Sun) [2011 г., боевик, комедия, приключения, семейный, DVDRip] (Dub)

Ответить на тему
 
Автор
Сообщение

Пост 28-Ноя-2011 18:34

[Q] 

Sirota

Легенда

Кунг-фу Кролик / Tu Xia Chuan Qi Год выпуска: 2011
Мировая премьера: 11 июля 2011
Российская премьера: 15 сентября 2011, «Люксор»
Дата выхода DVD: 13 октября 2011, «Новый Диск»
Производство: Китай
Жанр: боевик, комедия, приключения, семейный
Продолжительность: 01:25:09
Перевод: профессиональный (полное дублирование) лицензия
Автор(ы) перевода: Андрей Чижов
Режиссер: Cан Ли Джан / Lijun Sun
В ролях: Фань Вэй
Ни Ян
Чжан Йи Шан
Сунь Хунлэй
Описание: Вы думаете кролик — это только ценный мех, диетическое мясо, и пугливый, застенчивый нрав? Не все кролики одинаково трусливы. Среди них есть и сильные духом уверенные в себе особи. Это все про нашего героя. Он всегда отличался от других невероятной смелостью. Видя такое стремление, старый мастер Кунг-Фу решил именно ему передать свои секреты мастерства. Придет день и Кролик станет новым супергероем.
Доп. информация: сценарий Джинджи Зу
продюсер Эллиот Тонг, Cан Ли Джан
композитор Питер Кам
Сэмпл, IMDB, КиноПоиск
Источник/Качество: DVDRip
Формат: AVI
Видео кодек: XviD
Аудио кодек: AC3
Видео: 720x400 (1.80:1), 25 fps, XviD build 63 ~2002 kbps avg, 0.28 bit/pixel
Аудио: 48 kHz, AC3 Dolby Digital, 3/2 (L,C,R,l,r) + LFE ch, ~448.00 kbps avg
Субтитры: нет
General
Format : AVI
Format/Info : Audio Video Interleave
File size : 1.46 GiB
Duration : 1h 25mn
Overall bit rate : 2 460 Kbps
Writing application : VirtualDubMod 1.5.10.2 (build 2540/release)
Writing library : VirtualDubMod build 2540/release
Video #0
ID : 0
Format : MPEG-4 Visual
Format profile : [email protected]
Format settings, BVOP : Yes
Format settings, QPel : No
Format settings, GMC : No warppoints
Format settings, Matrix : Custom
Codec ID : XVID
Codec ID/Hint : XviD
Duration : 1h 25mn
Bit rate : 2 003 Kbps
Width : 720 pixels
Height : 400 pixels
Display aspect ratio : 16:9
Frame rate : 25.000 fps
Resolution : 24 bits
Colorimetry : 4:2:0
Scan type : Progressive
Bits/(Pixel*Frame) : 0.278
Stream size : 1.19 GiB (81%)
Writing library : XviD 63
Audio #1
ID : 1
Format : AC-3
Format/Info : Audio Coding 3
Codec ID : 2000
Duration : 1h 25mn
Bit rate mode : Constant
Bit rate : 448 Kbps
Channel(s) : 6 channels
Channel positions : Front: L C R, Surround: L R, LFE
Sampling rate : 48.0 KHz
Stream size : 273 MiB (18%)
Alignment : Split accross interleaves
Interleave, duration : 40 ms (1.00 video frame)
Interleave, preload duration : 500 ms







-
-Релиз подготовлен:

-
-
Download / Скачать

Хотите скачать бесплатно? Зарегистрируйтесь на сайте (ссылка на регистрацию). Pirat.ca - самый быстрый торрент трекер в рунете!

Как скачивать  ·   Что такое торрент  ·   Рейтинг и ограничения

Пост 28-Ноя-2011 22:45 (спустя 4 часа)

Топик был перенесен из форума Мультипликация в форум Новинки (HD|DVD|BD|TV|SAT|PDTV| - Rips)

zyyx
 

PTteam

Морской Волк

Пост 29-Ноя-2011 18:06 (спустя 23 часа)

[Q] 

Ну и рожа =)
[Профиль]  [ЛС] 

XAPOH

Гроза морей

Пост 07-Дек-2011 23:01 (спустя 8 дней)

[Q] 

Спасибо!
Бочонок выкатил на палубу.

_________________

<<<Dolus an virtus quis in hoste requirat?>>>
Intel Core i7 2600, 16Gb Ram, GTX 670, SSD.
PS4.
[Профиль]  [ЛС] 

cat75000

Лоцман

Пост 22-Фев-2012 19:00 (спустя 2 месяца 14 дней)

[Q] 

нет, на пародию не тянет. самостоятельная вещь, причем голивудского розлива.
почему? карате в чистом виде (видимо софт на другое не заточен, потому как чак норис), и плюс китайский антураж.
год же белого кролика. был :) ждем похождений черного дракона.
мульта прикольная. аффтарам зачет
[Профиль]  [ЛС] 

vladimiSV22

Морской Волк

Пост 26-Фев-2012 05:58 (спустя 3 дня)

[Q] 

Спасибо! Для моей дочи будет интересно
[Профиль]  [ЛС] 

nikandro

Морской Волк

Пост 13-Мар-2012 23:48 (спустя 16 дней)

[Q] 

Плагиат..
[Профиль]  [ЛС] 

CHARLI2236

1090

Пост 30-Окт-2012 13:13 (спустя 7 месяцев 16 дней)

[Q] 

благодарю

_________________
[Профиль]  [ЛС] 

Berar

Корсар

Пост 05-Дек-2012 21:01 (спустя 1 месяц 6 дней)

[Q] 

Заценим... Заранее
[Профиль]  [ЛС] 

manu

Пост 14-Ноя-2013 19:13 (спустя 11 месяцев 8 дней)

[Q] 

Постою на раздаче. Супер! Спасибо!!!
[Профиль]  [ЛС] 
Показать сообщения:    
Ответить на тему

Текущее время: Сегодня 00:38

Часовой пояс: GMT + 4



Вы не можете начинать темы
Вы не можете отвечать на сообщения
Вы не можете редактировать свои сообщения
Вы не можете удалять свои сообщения
Вы не можете голосовать в опросах
Вы не можете прикреплять файлы к сообщениям
Вы не можете скачивать файлы

▼ Вниз