ML
     
  Уважаемый Гость!
Вы можете поддержать проект и зарегистрироваться у наших партнеров - онлайн-стратегия MyLands. При регистрации в игре Вы получите код, который сможете активировать после регистрации на pirat.ca и получить 1000 дублонов.

Ваш код:
0fcd44bd35319f69313aa6e53b31c51cbff1c942
 
     

Тайна красной планеты / Mars Needs Moms (Саймон Уэллс / Simon Wells) [2011 г., фантастика, боевик, комедия, приключения, семейный, BDRip] Dub

Ответить на тему
 
Автор
Сообщение

Пост 28-Ноя-2011 19:25

[Q] 

Sirota

Легенда

Тайна красной планеты / Mars Needs Moms Год выпуска: 2011
Мировая премьера: 9 марта 2011
Российская премьера: 10 марта 2011, «WDSSPR»
Дата выхода DVD: 21 июня 2011, «Уолт Дисней Компани СНГ»
Производство: США
Жанр: фантастика, боевик, комедия, приключения, семейный
Продолжительность: 01:28:04
Перевод: профессиональный (полное дублирование)
Автор(ы) перевода: Диомид Виноградов, Анастасия Лапина, Жанна Агузарова
Режиссер: Саймон Уэллс / Simon Wells
В ролях: Сет Грин
Дэн Фоглер
Джоан Кьюсак
Элизабет Арнуа
Минди Стерлинг
Кевин Кахун
Том Эверетт Скотт
Жаки Барнбрук
Мэттью Хенерсон
Адам Дженнингс
Описание: Есть мерзкую брокколи, выносить мусор, рано ложиться спать — кому вообще нужны мамы, заставляющие это делать? Так думал Майло, пока не обнаружил, что его маму похитили марсиане. Тут-то и оказалось, что ему предстоит отправиться на другую планету, чтобы найти маму и вернуть ее домой.
Доп. информация: сценарий Саймон Уэллс, Венди Уэллс, Беркели Брисед
продюсер Стивен Дж. Бойд, Джек Рэпк, Стив Старки,
оператор Роберт Пресли
композитор Джон Пауэлл
художник Даг Чианг, Брайан Флора, Норман Ньюберри,
монтаж Уэйн Уормэн
бюджет $150 000 000
сборы в США $21 392 758
сборы в мире + $17 600 000 = $38 992 758
сборы в России $5 728 634

Сэмпл, IMDB, КиноПоиск
Источник/Качество: BDRip
Формат: AVI
Видео кодек: XviD
Аудио кодек: AC3
Видео: 720x304 (2.37:1), 23.976 fps, XviD build 63 ~1975 kbps avg, 0.38 bit/pixel
Аудио: 48 kHz, AC3 Dolby Digital, 3/2 (L,C,R,l,r) + LFE ch, ~384.00 kbps avg
Субтитры: нет
General
Format : AVI
Format/Info : Audio Video Interleave
File size : 1.46 GiB
Duration : 1h 28mn
Overall bit rate : 2 369 Kbps
Writing application : VirtualDubMod 1.5.10.3 (build 2550/release)
Writing library : VirtualDubMod build 2550/release
Video #0
ID : 0
Format : MPEG-4 Visual
Format profile : [email protected]
Format settings, BVOP : Yes
Format settings, QPel : No
Format settings, GMC : No warppoints
Format settings, Matrix : Custom
Codec ID : XVID
Codec ID/Hint : XviD
Duration : 1h 28mn
Bit rate : 1 976 Kbps
Width : 720 pixels
Height : 304 pixels
Display aspect ratio : 2.35:1
Frame rate : 23.976 fps
Resolution : 24 bits
Colorimetry : 4:2:0
Scan type : Progressive
Bits/(Pixel*Frame) : 0.376
Stream size : 1.22 GiB (83%)
Writing library : XviD 63
Audio #1
ID : 1
Format : AC-3
Format/Info : Audio Coding 3
Codec ID : 2000
Duration : 1h 28mn
Bit rate mode : Constant
Bit rate : 384 Kbps
Channel(s) : 6 channels
Channel positions : Front: L C R, Surround: L R, LFE
Sampling rate : 48.0 KHz
Stream size : 242 MiB (16%)
Alignment : Split accross interleaves
Interleave, duration : 42 ms (1.00 video frame)
Interleave, preload duration : 500 ms







Download / Скачать

Хотите скачать бесплатно? Зарегистрируйтесь на сайте (ссылка на регистрацию). Pirat.ca - самый быстрый торрент трекер в рунете!

Как скачивать  ·   Что такое торрент  ·   Рейтинг и ограничения

Пост 28-Ноя-2011 22:45 (спустя 3 часа)

Топик был перенесен из форума Мультипликация в форум Новинки (HD|DVD|BD|TV|SAT|PDTV| - Rips)

zyyx
 

TOR-rb

Шкипер

Пост 26-Янв-2012 15:50 (спустя 1 месяц 27 дней)

[Q] 

Прикольный мульт. Раздающему респект
[Профиль]  [ЛС] 

ухыч

Лоцман

Пост 29-Янв-2012 21:04 (спустя 3 дня)

[Q] 

Спасибо
[Профиль]  [ЛС] 

^_^ Шеля ^_^

Шкипер

Пост 12-Фев-2012 12:47 (спустя 13 дней)

[Q] 

Спасибо
[Профиль]  [ЛС] 

CHARLI2236

1096

Пост 30-Окт-2012 13:36 (спустя 8 месяцев 18 дней)

[Q] 

спасибо

_________________
[Профиль]  [ЛС] 

JUDASANS

Лоцман

Пост 13-Дек-2012 20:38 (спустя 1 месяц 14 дней)

[Q] 

[Профиль]  [ЛС] 

Alexe10

Гроза морей

36

Пост 20-Дек-2013 09:54 (спустя 1 год)

[Q] 

Прикольный мульт!
[Профиль]  [ЛС] 

PRADO

Шкипер

Пост 31-Дек-2013 15:01 (спустя 11 дней)

[Q] 

у марсиан жопы смешные))))))))))))
[Профиль]  [ЛС] 

Mistar

Морской Волк

1

Пост 31-Дек-2013 16:32 (спустя 1 час 30 минут)

[Q] 

Автору респект!!! Лови бочку
[Профиль]  [ЛС] 

prohodilmimo

Корсар

24

Пост 31-Дек-2013 19:17 (спустя 2 часа 45 минут)

[Q] 

И как я его пропустил? Качаю!
[Профиль]  [ЛС] 

незабудка80

Штурман

Пост 02-Мар-2014 20:44 (спустя 2 месяца 2 дня)

[Q] 

Спасибо!!!Спасибо!!!Спасибо!!!
[Профиль]  [ЛС] 

SlaG

Шкипер

33

Пост 06-Дек-2015 18:20 (спустя 1 год 9 месяцев)

[Q] 

Спасибо!!! Лови бочку
[Профиль]  [ЛС] 

Незнайка

Флибустьер

Пост 06-Дек-2015 18:51 (спустя 31 минута)

[Q] 

Спасибо
Супер!
[Профиль]  [ЛС] 

lightmaster

Флибустьер

Пост 06-Янв-2016 23:53 (спустя 1 месяц)

[Q] 

Сам смотрел как боевик Лови бочку
[Профиль]  [ЛС] 
Показать сообщения:    
Ответить на тему

Текущее время: Сегодня 02:11

Часовой пояс: GMT + 4



Вы не можете начинать темы
Вы не можете отвечать на сообщения
Вы не можете редактировать свои сообщения
Вы не можете удалять свои сообщения
Вы не можете голосовать в опросах
Вы не можете прикреплять файлы к сообщениям
Вы не можете скачивать файлы

▼ Вниз